<?xml version="1.0" standalone="no"?>
<!DOCTYPE svg PUBLIC "-//W3C//DTD SVG 1.1//EN" "http://www.w3.org/Graphics/SVG/1.1/DTD/svg11.dtd" >
<svg>
<metadata>
Created by FontForge 20090914 at Fri Oct 17 21:46:13 2014
 By www-data
Copyright (c) 2012 by Alvaro Thomaz. All rights reserved.
</metadata>
<defs>
<font id="Aliquam-UltralightItalic" horiz-adv-x="532" >
  <font-face 
    font-family="Aliquam"
    font-weight="200"
    font-style="italic"
    font-stretch="normal"
    units-per-em="1000"
    panose-1="2 0 5 6 0 0 0 9 0 4"
    ascent="800"
    descent="-200"
    x-height="519"
    cap-height="721"
    bbox="-38 -191.001 1145 940"
    underline-thickness="50"
    underline-position="-75"
    slope="-12"
    unicode-range="U+0020-U+F001"
  />
<missing-glyph horiz-adv-x="454" 
d="M39 0l170 804h375l-170 -804h-375zM114 63h250l144 679h-250z" />
    <glyph glyph-name=".notdef" horiz-adv-x="454" 
d="M39 0l170 804h375l-170 -804h-375zM114 63h250l144 679h-250z" />
    <glyph glyph-name="space" unicode=" " horiz-adv-x="205" 
 />
    <glyph glyph-name="exclam" unicode="!" horiz-adv-x="110" 
d="M96 184h-20l114 537h20zM57 0h-20l21 99h20z" />
    <glyph glyph-name="quotedbl" unicode="&#x22;" horiz-adv-x="212" 
d="M276 494h-20l48 227h20zM164 494h-20l48 227h20z" />
    <glyph glyph-name="numbersign" unicode="#" horiz-adv-x="507" 
d="M587 430h-121l-62 -179h117l-4 -20h-121l-80 -231h-20l80 231h-172l-80 -231h-20l80 231h-125l4 20h130l62 179h-126l4 20h131l82 237h20l-82 -237h171l82 237h20l-82 -237h116zM446 430h-171l-62 -179h171z" />
    <glyph glyph-name="dollar" unicode="$" horiz-adv-x="568" 
d="M586 177c-13.333 -64 -50.999 -113.667 -112.999 -149c-52.667 -30 -112.667 -45 -180 -45l-19 -89h-20l19 90c-80.667 3.33301 -138.667 26 -174 68c-37.333 44 -47.666 106.333 -30.999 187h20c-32 -151.333 31 -229.666 189 -234.999l77 360
c-75.333 17.333 -125.333 34 -150 50c-45.333 30 -61.333 76 -48 138c13.333 63.333 48.333 111.333 105 144c47.333 27.333 104.666 41.333 171.999 42l10 44h20l-10 -45c152 -3.33301 216 -76 192 -218h-20c23.333 128.667 -35.334 194.667 -176.001 198l-72 -337
c87.333 -23.333 141 -41.333 161 -54c46.667 -30.667 62.667 -80.334 48 -149.001zM358.001 385l71 333.001c-60 -0.666992 -112 -13 -156 -37c-52.667 -29.333 -85 -72.333 -97 -129c-12 -54.667 3.66699 -95.334 47 -122.001c22 -14.667 67 -29.667 135 -45z
M566.001 178.001c12.667 60 -3.33301 104.001 -48 132.001c-20.667 13.333 -69 29.666 -145 48.999l-76 -356c62 0 117.333 13.333 166 40c56.667 32 91 77 103 135z" />
    <glyph glyph-name="percent" unicode="%" horiz-adv-x="692" 
d="M443 525c-10 -48.667 -32.498 -89.333 -67.498 -122s-76.167 -49 -123.5 -49c-48.667 0 -83.334 16.667 -104.001 50c-18.667 30.667 -22.667 70.667 -12 120c10.667 50 31.667 91 63 123c34.667 34.667 76.667 52 126 52s84.333 -17 105 -51
c19.333 -31.333 23.666 -72.333 12.999 -123zM744.002 721.001l-637 -755h-23l637 755h23zM702.002 160.001c-10.667 -48.667 -32.998 -88.999 -66.998 -120.999c-36 -34 -77.667 -51 -125 -51c-48.667 0 -83 16.667 -103 50c-18.667 31.333 -23 71.666 -13 120.999
c10.667 50 31.667 91 63 123c34.667 34 76.667 51 126 51s84.666 -16.667 105.999 -50c19.333 -31.333 23.666 -72.333 12.999 -123zM423.004 524.002c10 46.667 7 83.3311 -9 109.998c-17.333 30 -48.333 45 -93 45s-81.667 -15 -111 -45c-26 -27.333 -44 -64 -54 -110
c-9.33301 -43.333 -6 -78.666 10 -105.999c17.333 -29.333 47.333 -44 90 -44c42 0 78 14.333 108 43s49.667 64.334 59 107.001zM681.004 158.999c10 46 6.66602 83.166 -10.001 111.499s-47.334 42.5 -92.001 42.5s-81.667 -15 -111 -45c-26 -26.667 -44 -63 -54 -109
c-9.33301 -43.333 -5.66602 -78.666 11.001 -105.999c16.667 -30 46.334 -45 89.001 -45c42 0 78.667 15 110 45c29.333 28 48.333 63.333 57 106z" />
    <glyph glyph-name="ampersand" unicode="&#x26;" horiz-adv-x="567" 
d="M552 0h-25.9971l-65 114c-66 -87.333 -145 -131 -237 -131c-53.333 0 -96.666 16.333 -129.999 49c-35.333 34.667 -47.333 78 -36 130c10.667 50.667 42 97.667 94 141c29.333 24.667 78.666 56.334 147.999 95.001l-48 88c-18 38 -24 71.667 -18 101
c8.66699 40.667 29.667 73.167 63 97.5s70.666 36.5 111.999 36.5s73.333 -12.167 96 -36.5s29.667 -56.833 21 -97.5s-34.334 -78.667 -77.001 -114c-12.667 -10.667 -53 -37.334 -121 -80.001l137 -240c23.333 36 45.666 95.333 66.999 178h20
c-21.333 -85.333 -47 -151 -77 -197zM506.003 587c7.33301 34 1.16797 61.499 -18.499 82.499s-46.834 31.5 -81.501 31.5c-35.333 0 -67.5 -10 -96.5 -30s-47.167 -47.333 -54.5 -82c-5.33301 -25.333 0.666992 -57.333 18 -96c2.66699 -6.66699 18 -35 46 -85
c55.333 32.667 93 57.334 113 74.001c42 34 66.667 69 74 105zM452.005 132.999l-142.999 248.999c-70.667 -39.333 -117.667 -68.666 -141 -87.999c-50 -39.333 -80 -83.333 -90 -132c-10 -48 0.666992 -87 32 -117c29.333 -28 68.666 -42 117.999 -42
c88 0 162.667 43.333 224 130z" />
    <glyph glyph-name="quotesingle" unicode="'" horiz-adv-x="114" 
d="M164 494h-20l48 227h20z" />
    <glyph glyph-name="parenleft" unicode="(" horiz-adv-x="160" 
d="M109 -179l-20 -0.000976562c-45.333 152.667 -51.333 307.334 -18 464.001c33.333 158 104 309 212 453h20c-108 -144 -178.667 -295 -212 -453c-35.333 -165.333 -29.333 -320 18 -464z" />
    <glyph glyph-name="parenright" unicode=")" horiz-adv-x="161" 
d="M208 275c-33.333 -157.333 -104 -308.666 -212 -453.999h-20c108 145.333 178.667 296.666 212 453.999c35.333 166 29 320.333 -19 463h20c46 -152 52.333 -306.333 19 -463z" />
    <glyph glyph-name="asterisk" unicode="*" horiz-adv-x="306" 
d="M425 604l-139 -43l59 -111l-18 -12l-60 109l-107 -105l-13 14l111 105l-121 43l10 19l117 -43l30 141h20l-30 -141l141 43v-19z" />
    <glyph glyph-name="plus" unicode="+" horiz-adv-x="506" 
d="M557 245h-242l-52 -245h-20l52 245h-242l4 21h242l52 245h20l-52 -245h242z" />
    <glyph glyph-name="comma" unicode="," horiz-adv-x="80" 
d="M54 0c-12.667 -59.333 -35.667 -99.333 -69 -120l4 20c20.667 17.333 37.667 58.333 51 123c2.66699 12 5.5 26.667 8.5 44s5.16699 28 6.5 32h20z" />
    <glyph glyph-name="hyphen" unicode="-" horiz-adv-x="255" 
d="M269 261h-175l4 20h175z" />
    <glyph glyph-name="hyphen" unicode="&#x2010;" horiz-adv-x="255" 
d="M269 261h-175l4 20h175z" />
    <glyph glyph-name="period" unicode="." horiz-adv-x="114" 
d="M59 0h-20l21 99h20z" />
    <glyph glyph-name="slash" unicode="/" horiz-adv-x="349" 
d="M504 738l-487 -755h-19l486 755h20z" />
    <glyph glyph-name="zero" unicode="0" horiz-adv-x="572" 
d="M615 343c-20.667 -97.333 -55.667 -177 -105 -239c-61.333 -77.333 -137 -116 -227 -116c-90.667 0 -150 38.667 -178 116c-23.333 62 -24.666 141.667 -3.99902 239s55.667 177.333 105 240c61.333 77.333 137.333 116 228 116c90 0 149 -38.667 177 -116
c23.333 -62.667 24.666 -142.667 3.99902 -240zM595 343c20 91.333 19.667 166.333 -1 225c-25.333 74 -80 111 -164 111c-84.667 0 -155.334 -37 -212.001 -111c-44.667 -58.667 -77 -133.667 -97 -225c-19.333 -91.333 -18.666 -166.333 2.00098 -225
c24.667 -73.333 79.334 -110 164.001 -110c84 0 154.333 36.667 211 110c45.333 58.667 77.666 133.667 96.999 225z" />
    <glyph glyph-name="one" unicode="1" horiz-adv-x="243" 
d="M203 0h-20l140 661h-2l-207 -122l5 21l208 127h22z" />
    <glyph glyph-name="two" unicode="2" horiz-adv-x="495" 
d="M487 0l-457.999 -0.00195312c12.667 62 61.667 123 147 183l234 148c85.333 60 134.666 121 147.999 183c11.333 52.667 1.33301 94 -30 124c-28.667 27.333 -70 41 -124 41c-66.667 0 -121.334 -20 -164.001 -60c-40 -37.333 -67 -89.666 -81 -156.999h-20
c15.333 73.333 45.833 131.166 91.5 173.499s104.834 63.5 177.501 63.5c60 0 105.667 -15.333 137 -46c34.667 -33.333 45.667 -79.666 33 -138.999c-14 -65.333 -62.667 -128.666 -146 -189.999l-227 -145c-85.333 -56 -136 -109 -152 -159h438z" />
    <glyph glyph-name="three" unicode="3" horiz-adv-x="536" 
d="M547 190c-13.333 -61.333 -47.6641 -110.999 -102.997 -148.999c-50.667 -35.333 -107.334 -53 -170.001 -53c-74 0 -130 18.667 -168 56c-40.667 40.667 -51.334 96.667 -32.001 168l5 20h20l-6 -22c-17.333 -65.333 -7 -116 31 -152c34.667 -33.333 86 -50 154 -50
c57.333 0 109 15.667 155 47c50.667 34 82 79 94 135c14.667 69.333 -1 117 -47 143c-32 18 -85.667 27 -161 27l4 20c70 0 123.333 7.66699 160 23c55.333 22.667 89.666 65 102.999 127c10.667 50 -1.66602 88.333 -36.999 115c-30 22.667 -71.333 34 -124 34
c-66.667 0 -122.5 -17.667 -167.5 -53s-74.5 -86 -88.5 -152h-20c15.333 72 47.666 127.5 96.999 166.5s110.333 58.5 183 58.5c59.333 0 105.333 -13 138 -39c38 -30 51 -73.333 39 -130c-9.33301 -44.667 -30.333 -81.334 -63 -110.001s-71.667 -45 -117 -49v-2
c47.333 -4.66699 82 -23.167 104 -55.5s27.667 -73.5 17 -123.5z" />
    <glyph glyph-name="four" unicode="4" horiz-adv-x="502" 
d="M528 179h-123l-38 -179h-20l38 179h-345l5 24l443 484h25l-104 -488h123zM389 199l98 460h-2l-421 -460h325z" />
    <glyph glyph-name="five" unicode="5" horiz-adv-x="510" 
d="M544 228c-15.333 -71.333 -49.167 -129.168 -101.5 -173.501s-113.833 -66.5 -184.5 -66.5c-72 0 -124.833 20.833 -158.5 62.5s-43.167 98.167 -28.5 169.5h20c-14 -66 -5.5 -117.833 25.5 -155.5s79.5 -56.5 145.5 -56.5c65.333 0 121.833 20.167 169.5 60.5
s78.5 93.5 92.5 159.5c13.333 64 4.5 116.167 -26.5 156.5s-78.5 60.5 -142.5 60.5c-40 0 -78.333 -8.66699 -115 -26c-40 -19.333 -72.333 -45.666 -97 -78.999h-25l147 347h349l-5 -20h-333l-124 -294h2c51.333 62 120 93 206 93c69.333 0 121 -22.333 155 -67
s43.667 -101.667 29 -171z" />
    <glyph glyph-name="six" unicode="6" horiz-adv-x="534" 
d="M554 225c-14 -65.333 -48.833 -121.166 -104.5 -167.499s-115.834 -69.5 -180.501 -69.5c-162 0 -219.333 112 -172 336c21.333 100 56.333 183 105 249c62.667 84 139.667 126 231 126c53.333 0 96.333 -15.833 129 -47.5s47.334 -73.834 44.001 -126.501h-20
c0 48.667 -14 86.5 -42 113.5s-66.667 40.5 -116 40.5c-90.667 0 -165 -45.333 -223 -136c-42 -64.667 -74 -149 -96 -253h2c20.667 50 56 91.333 106 124s101 49 153 49c64.667 0 115 -23.5 151 -70.5s47 -102.833 33 -167.5zM534 225
c12.667 59.333 2.50098 110.333 -30.499 153s-79.167 64 -138.5 64c-60 0 -115.333 -21.333 -166 -64s-82.334 -93.667 -95.001 -153s-2.66699 -110.333 30 -153s79 -64 139 -64c59.333 0 114.5 21.333 165.5 64s82.833 93.667 95.5 153z" />
    <glyph glyph-name="seven" unicode="7" horiz-adv-x="516" 
d="M652 660c-121.333 -100 -217.001 -199.667 -287.001 -299c-80 -112.667 -133.333 -233 -160 -361h-20c50.667 240.667 199.334 463 446.001 667h-412l5 20h434z" />
    <glyph glyph-name="eight" unicode="8" horiz-adv-x="548" 
d="M561 192c-14 -68 -49.998 -120 -107.998 -156c-50.667 -32 -111.334 -48 -182.001 -48s-125 16 -163 48c-41.333 36 -55 88 -41 156c11.333 52.667 36.166 95.5 74.499 128.5s84.833 51.833 139.5 56.5v2c-38 5.33301 -67.667 21.333 -89 48s-28 59.334 -20 98.001
c12.667 59.333 43.667 104 93 134c42.667 26.667 95 40 157 40c61.333 0 108 -13.333 140 -40c36.667 -30 48.667 -74.667 36 -134c-8 -38.667 -28.333 -71.334 -61 -98.001s-69.334 -42.667 -110.001 -48v-2c51.333 -4.66699 89.333 -23.5 114 -56.5
s31.334 -75.833 20.001 -128.5zM578.002 525c11.333 53.333 0.332031 93.333 -33.001 120c-29.333 22.667 -71.666 34 -126.999 34c-56 0 -103.333 -11.333 -142 -34c-44.667 -26.667 -72.667 -66.667 -84 -120c-10 -46 3.66699 -81.667 41 -107c32 -21.333 73 -32 123 -32
c49.333 0 94 10.667 134 32c48.667 25.333 78 61 88 107zM541.001 192c13.333 61.333 -0.668945 107 -42.002 137c-33.333 24.667 -82.666 37 -147.999 37s-120.333 -12.333 -165 -37c-52.667 -30 -85.667 -75.667 -99 -137c-12.667 -62 0.333008 -109.333 39 -142
c34.667 -28 84.334 -42 149.001 -42s120 14 166 42c54 32.667 87.333 80 100 142z" />
    <glyph glyph-name="nine" unicode="9" horiz-adv-x="535" 
d="M583 363c-21.333 -100 -56.667 -183 -106 -249c-62.667 -84 -139.667 -126 -231 -126c-54 0 -97.333 15.833 -130 47.5s-47 73.834 -43 126.501h20c0 -48.667 13.833 -86.5 41.5 -113.5s66.5 -40.5 116.5 -40.5c90 0 164.333 45.333 223 136c42 64.667 74 149 96 253h-2
c-21.333 -50 -56.833 -91.333 -106.5 -124s-100.5 -49 -152.5 -49c-64.667 0 -115 23.5 -151 70.5s-47 102.833 -33 167.5c14 65.333 48.667 121.166 104 167.499s115.666 69.5 180.999 69.5c162.667 0 220.334 -112 173.001 -336zM574.999 462
c12.667 59.333 2.5 110.333 -30.5 153s-79.167 64 -138.5 64s-114.5 -21.333 -165.5 -64s-82.833 -93.667 -95.5 -153c-12.667 -60 -2.66699 -111.333 30 -154s78.667 -64 138 -64c60 0 115.5 21.333 166.5 64s82.833 94 95.5 154z" />
    <glyph glyph-name="colon" unicode=":" horiz-adv-x="69" 
d="M148 420h-20l21 99h20zM59 0h-20l21 99h20z" />
    <glyph glyph-name="semicolon" unicode=";" horiz-adv-x="77" 
d="M136 420h-20l21 99h20zM47 0c-12.667 -59.333 -35.667 -99.333 -69 -120l4 20c20.667 17.333 37.667 58.333 51 123c2.66699 12 5.5 26.667 8.5 44s5.16699 28 6.5 32h20z" />
    <glyph glyph-name="less" unicode="&#x3c;" horiz-adv-x="537" 
d="M507 -8l-455 251l5 25l562 251l-5 -21l-541 -242l438 -243z" />
    <glyph glyph-name="equal" unicode="=" horiz-adv-x="525" 
d="M586 343h-504l5 21h504zM545 147h-504l4 21h504z" />
    <glyph glyph-name="greater" unicode="&#x3e;" horiz-adv-x="537" 
d="M587 243l-561 -251l4 21l542 243l-439 242l5 21l454 -251z" />
    <glyph glyph-name="question" unicode="?" horiz-adv-x="432" 
d="M542 571c-10.667 -50.667 -37.3311 -95.333 -79.998 -134l-115 -97c-43.333 -42.667 -71.333 -94.667 -84 -156h-20c13.333 63.333 41.666 117.333 84.999 162l116 98c42 38 68 80.333 78 127c10 48 0 85.333 -30 112c-27.333 23.333 -66 35 -116 35
c-64.667 0 -118.667 -21 -162 -63c-40.667 -38.667 -59 -91 -55 -157h-20c-2.66699 71.333 18.666 128.333 63.999 171c48.667 46 107.667 69 177 69c54.667 0 97.667 -13.667 129 -41c33.333 -30.667 44.333 -72.667 33 -126zM224.003 0.000976562h-20l21 99h20z" />
    <glyph glyph-name="at" unicode="@" horiz-adv-x="741" 
d="M801 415c-13.333 -62.667 -45.999 -123.667 -97.999 -183c-58.667 -66 -118 -99 -178 -99c-18.667 0 -32 6 -40 18s-10 27.333 -6 46h-2c-38.667 -42.667 -88.334 -64 -149.001 -64c-39.333 0 -69 15 -89 45c-19.333 28 -24.666 62 -15.999 102
c14.667 69.333 50.334 134 107.001 194c61.333 65.333 125.333 98 192 98c30 0 56.667 -7.5 80 -22.5s36.333 -36.167 39 -63.5h2l38 66h21l-112 -182c-56.667 -95.333 -87.334 -154.333 -92.001 -177c-6 -26 5 -39 33 -39c54 0 107.667 31 161 93
c47.333 55.333 77 111.333 89 168c18 84.667 3 153.667 -45 207c-46.667 51.333 -113 77 -199 77c-95.333 0 -183.166 -33.167 -263.499 -99.5s-130.833 -147.166 -151.5 -242.499c-22 -103.333 -8.5 -187.333 40.5 -252s124.833 -97 227.5 -97c57.333 0 115.333 15 174 45
c56.667 28 106.667 66.333 150 115h23c-44 -54 -97.833 -97.5 -161.5 -130.5s-126.834 -49.5 -189.501 -49.5c-108.667 0 -188.834 34.167 -240.501 102.5s-66.167 157.166 -43.5 266.499c22 101.333 75.333 187 160 257s177.667 105 279 105c92 0 162.667 -27.333 212 -82
c51.333 -57.333 67.333 -131.333 48 -222zM626.001 461c-2.66699 60 -40.001 89.999 -112.001 89.999c-59.333 0 -117.333 -31 -174 -93c-51.333 -56.667 -83.666 -116 -96.999 -178c-7.33301 -35.333 -2.33301 -65.166 15 -89.499s43.333 -36.5 78 -36.5
c45.333 0 88 18.667 128 56c30 28 60.667 69.333 92 124z" />
    <glyph glyph-name="A" unicode="A" horiz-adv-x="625" 
d="M611 0h-22l-44 237h-364l-145 -237h-23l443 721h26zM541 258l-75 443h-2l-271 -443h348z" />
    <glyph glyph-name="B" unicode="B" horiz-adv-x="600" 
d="M611 196c-13.333 -64.667 -47.665 -114.665 -102.998 -149.998c-48 -30.667 -105.667 -46 -173 -46h-295l153 721h307c59.333 0 103.666 -15 132.999 -45c32 -32.667 41.667 -77.667 29 -135c-8.66699 -43.333 -30.834 -80.833 -66.501 -112.5
s-75.167 -48.834 -118.5 -51.501l-1 -2c50.667 -1.33301 88.5 -18.833 113.5 -52.5s32.167 -75.834 21.5 -126.501zM642.001 541.002c11.333 52 2.66602 92.332 -26.001 120.999c-26.667 26 -66.667 39 -120 39h-287l-67 -315h287c50.667 0 95.334 13 134.001 39
c42.667 28.667 69 67.334 79 116.001zM591.001 195.001c12 56.667 1.00195 100.001 -32.998 130.001c-30.667 27.333 -75.334 41 -134.001 41h-287l-73 -346h284c59.333 0 110.666 14 153.999 42c47.333 31.333 77 75.666 89 132.999z" />
    <glyph glyph-name="C" unicode="C" horiz-adv-x="688" 
d="M725 283c-31.333 -89.333 -79.0029 -160.666 -143.003 -213.999c-68.667 -57.333 -147 -86 -235 -86c-99.333 0 -171 38 -215 114c-41.333 69.333 -51 155.333 -29 258c22.667 107.333 70.334 196.666 143.001 267.999c78 76.667 169.333 115 274 115
c70 0 128.667 -21 176 -63c51.333 -46 71.333 -102.667 60 -170h-20c8 63.333 -11 115.333 -57 156c-43.333 38 -97.666 57 -162.999 57c-98 0 -183.667 -36.667 -257 -110c-69.333 -68 -114.666 -152.333 -135.999 -253c-20.667 -96 -11.667 -177 27 -243
c41.333 -72.667 108.333 -109 201 -109c82.667 0 156 26.667 220 80c60 50 104.667 116.667 134 200h20z" />
    <glyph glyph-name="D" unicode="D" horiz-adv-x="622" 
d="M670 361c-22.667 -108.667 -69.333 -195.333 -140 -260c-74 -67.333 -164.333 -101 -271 -101h-219l153 721h250c102.667 0 172.667 -35 210 -105c34 -63.333 39.667 -148.333 17 -255zM650.001 361.001c22 104 17.332 185 -14.001 243
c-35.333 64.667 -102.666 97 -201.999 97h-225l-145 -681h204c98.667 0 183 32.667 253 98c64.667 61.333 107.667 142.333 129 243z" />
    <glyph glyph-name="E" unicode="E" horiz-adv-x="517" 
d="M517 0h-478l153 721h474l-4 -20h-454l-67 -315h427l-5 -20h-427l-73 -346h458z" />
    <glyph glyph-name="F" unicode="F" horiz-adv-x="479" 
d="M628 701h-420l-67 -315h380l-5 -20h-380l-77 -366h-20l153 721h440z" />
    <glyph glyph-name="G" unicode="G" horiz-adv-x="697" 
d="M738 317c-9.33301 -42 -20.834 -78 -34.501 -108s-28.5 -56 -44.5 -78s-33.333 -40.833 -52 -56.5s-37 -29.5 -55 -41.5c-61.333 -33.333 -125.666 -50 -192.999 -50c-106 0 -181.333 37.333 -226 112c-42 68.667 -51.667 157.334 -29 266.001
c22.667 106 70.334 194 143.001 264c77.333 75.333 168 113 272 113c77.333 0 138.666 -21.5 183.999 -64.5s65.666 -102.167 60.999 -177.5h-20c2 69.333 -17.833 123.666 -59.5 162.999s-98.167 59 -169.5 59c-97.333 0 -182.666 -35.667 -255.999 -107
c-68.667 -66.667 -113.667 -150 -135 -250c-22 -102.667 -12.667 -186.667 28 -252c42 -70.667 113.333 -106 214 -106c92 0 169.667 30.333 233 91c58.667 56 98 130.333 118 223h-277l4 20h297z" />
    <glyph glyph-name="H" unicode="H" horiz-adv-x="619" 
d="M579 0h-20l77 366h-500l-77 -366h-20l153 721h20l-71 -335h500l71 335h20z" />
    <glyph glyph-name="I" unicode="I" horiz-adv-x="114" 
d="M67 0h-20l153 721h20z" />
    <glyph glyph-name="J" unicode="J" horiz-adv-x="424" 
d="M516 701h-303l4 20h323l-114 -533c-28.667 -136.667 -108.334 -205 -239.001 -205c-74 0 -120.667 23 -140 69c-16 36 -13 93 9 171h17c-18.667 -72.667 -21.667 -125 -9 -157c16 -42 58.333 -63 127 -63c64.667 0 114.334 17.333 149.001 52c32 32 55.333 81.333 70 148
z" />
    <glyph glyph-name="K" unicode="K" horiz-adv-x="629" 
d="M604 0h-27l-269 402l-195 -146l-54 -256h-20l153 721h20l-93 -438l588 438h30l-411 -307z" />
    <glyph glyph-name="L" unicode="L" horiz-adv-x="476" 
d="M476 0h-437l153 721h20l-149 -701h417z" />
    <glyph glyph-name="M" unicode="M" horiz-adv-x="750" 
d="M711 0h-20l147 696h-2l-450 -696h-22l-156 696h-2l-147 -696h-20l153 721h33l154 -695h2l450 695h33z" />
    <glyph glyph-name="N" unicode="N" horiz-adv-x="619" 
d="M579 0h-30l-341 696h-2l-147 -696h-20l153 721h30l340 -696h2l148 696h20z" />
    <glyph glyph-name="O" unicode="O" horiz-adv-x="714" 
d="M762 361c-22.667 -106 -69 -194 -139 -264c-76.667 -76 -166.667 -114 -270 -114s-177.333 38 -222 114c-40.667 70 -49.667 158 -27 264s69 194 139 264c76.667 75.333 166.667 113 270 113s177.333 -37.667 222 -113c40.667 -70 49.667 -158 27 -264zM742 361
c21.333 100.667 13.333 184 -24 250c-41.333 71.333 -111 107 -209 107s-183 -35.667 -255 -107c-65.333 -66 -108.666 -149.333 -129.999 -250s-13.333 -184 24 -250c41.333 -72 111 -108 209 -108s183 36 255 108c65.333 66 108.666 149.333 129.999 250z" />
    <glyph glyph-name="P" unicode="P" horiz-adv-x="548" 
d="M656 524c-16.667 -78.667 -60.667 -134 -132 -166c-42.667 -20.667 -86 -30.667 -130 -30h-266l-69 -328h-20l153 721h289c66.667 0 115.667 -16 147 -48c32.667 -34 42 -83.667 28 -149zM636 524c25.333 118 -27.668 177 -159.001 177h-269l-76 -353h269
c56.667 0 106.334 15 149.001 45c45.333 32 74 75.667 86 131z" />
    <glyph glyph-name="Q" unicode="Q" horiz-adv-x="702" 
d="M339 -16l-17.002 0.000976562c-90.667 5.33301 -156.334 43 -197.001 113c-41.333 70 -50.666 158 -27.999 264s69.334 194 140.001 264c76 75.333 165.667 113 269 113c104 0 178 -37.667 222 -113c40.667 -70 49.667 -158 27 -264c-26 -122.667 -81.667 -219 -167 -289
l-16 -13c-66 -50.667 -137 -75.667 -213 -75c-13.333 -64 39.667 -91.667 159 -83l-10 -20c-129.333 -8.66699 -185.666 25.666 -168.999 102.999zM734.998 361.001c21.333 100.667 13.333 184.001 -24 250.001c-41.333 71.333 -111 107 -209 107
s-182.667 -35.667 -254 -107c-66 -66 -109.667 -149.333 -131 -250s-13 -184 25 -250c40.667 -72 110 -108 208 -108c76.667 0 145.667 22.667 207 68l16 13c82.667 65.333 136.667 157.666 162 276.999z" />
    <glyph glyph-name="R" unicode="R" horiz-adv-x="580" 
d="M510 0l-74.999 338.001h-305l-71 -338h-20l153 721h292c145.333 0 204.666 -61.667 177.999 -185c-21.333 -100.667 -89 -165.334 -203 -194.001l76 -342h-25zM643.001 538.001c23.333 108.667 -29.334 163 -158.001 163h-277l-73 -342h267
c58.667 0 109.334 14.667 152.001 44c47.333 32.667 77 77.667 89 135z" />
    <glyph glyph-name="S" unicode="S" horiz-adv-x="584" 
d="M594 177c-13.333 -64 -50.668 -113.335 -112.001 -148.002c-53.333 -30.667 -113.666 -46 -180.999 -46c-86 0 -149 20.667 -189 62c-42 44 -54 108.667 -36 194h20c-33.333 -157.333 36.334 -236 209.001 -236c61.333 0 116.666 13.333 165.999 40
c56.667 32 91 77 103 135c16 74 -15.333 125.667 -94 155l-223 59c-78.667 30 -109.667 83.333 -93 160c13.333 64.667 49.333 113.334 108 146.001c48 26.667 106.333 40 175 40c162 0 230.667 -73 206 -219h-20c24 132.667 -39.333 199 -190 199
c-62 0 -115.333 -12 -160 -36c-54 -28.667 -87 -72 -99 -130c-14.667 -69.333 17.333 -117.666 96 -144.999l223 -60c78 -32 108.333 -88.667 91 -170z" />
    <glyph glyph-name="T" unicode="T" horiz-adv-x="538" 
d="M685 701h-257l-149 -701h-20l149 701h-257l4 20h534z" />
    <glyph glyph-name="U" unicode="U" horiz-adv-x="595" 
d="M616 269c-19.333 -90 -55.333 -159.333 -108 -208c-55.333 -52 -127 -78 -215 -78s-149 26 -183 78c-31.333 48.667 -37.333 118 -18 208l96 452h20l-96 -452c-38 -177.333 23.667 -266 185 -266s261 88.667 299 266l96 452h20z" />
    <glyph glyph-name="V" unicode="V" horiz-adv-x="600" 
d="M740 721l-425 -721h-22l-127 721h20l122 -695h2l410 695h20z" />
    <glyph glyph-name="W" unicode="W" horiz-adv-x="940" 
d="M1068 721l-360 -721h-27l-63 696h-2l-353 -696h-27l-58 721h21l54 -696h2l354 696h29l61 -696h2l347 696h20z" />
    <glyph glyph-name="X" unicode="X" horiz-adv-x="631" 
d="M602 0h-25l-186 355l-338 -355h-25l353 371l-185 350h26l176 -334l320 334h25l-335 -350z" />
    <glyph glyph-name="Y" unicode="Y" horiz-adv-x="618" 
d="M761 721l-378 -417l-64 -304h-20l64 304l-200 417h25l190 -396l359 396h24z" />
    <glyph glyph-name="Z" unicode="Z" horiz-adv-x="536" 
d="M532 0h-527l5 27l643 674h-471l4 20h491l-6 -27l-642 -674h507z" />
    <glyph glyph-name="bracketleft" unicode="[" horiz-adv-x="153" 
d="M114 -179h-113l195 917h113l-4 -20h-93l-186 -877h93z" />
    <glyph glyph-name="backslash" unicode="\" horiz-adv-x="349" 
d="M344 -17h-20l-167 755h20z" />
    <glyph glyph-name="bracketright" unicode="]" horiz-adv-x="156" 
d="M74 -179h-112l5 20h92l186 877h-93l4 20h113z" />
    <glyph glyph-name="asciicircum" unicode="^" horiz-adv-x="510" 
d="M544 229h-20l-128 438l-314 -438h-20l329 458h20z" />
    <glyph glyph-name="underscore" unicode="_" horiz-adv-x="581" 
d="M513 -126h-500l10 50h500z" />
    <glyph glyph-name="grave" unicode="`" horiz-adv-x="161" 
d="M282 593h-15l-109 145h29z" />
    <glyph glyph-name="a" unicode="a" 
d="M502 142c-10 -18.667 -28.001 -42.001 -54.001 -70.001c-54.667 -56 -118.334 -84 -191.001 -84c-72 0 -123.667 28 -155 84c-28 50.667 -34 113.334 -18 188.001c15.333 74 48.333 136.667 99 188c54.667 55.333 118 83 190 83c22.667 0 43.834 -1.5 63.501 -4.5
s38.334 -7.16699 56.001 -12.5s34.667 -11.5 51 -18.5l49.5 -20.5l-101 -475h-20zM526.999 259.999l43.001 198.001c-30.667 16 -61.167 29 -91.5 39s-66.833 14.667 -109.5 14c-66 0 -124 -26 -174 -78c-46 -46.667 -76.333 -104.334 -91 -173.001
c-14.667 -69.333 -9.33398 -127.333 15.999 -174c28 -52 75.333 -78 142 -78s125 26 175 78c45.333 47.333 75.333 105.333 90 174z" />
    <glyph glyph-name="b" unicode="b" horiz-adv-x="496" 
d="M542 259c-16 -74 -47.002 -136 -93.002 -186c-51.333 -56.667 -112.666 -85 -183.999 -85c-106 -1.33301 -177.667 18 -215 58l143 675h20l-74 -347h2c23.333 49.333 56.333 87.833 99 115.5s89.334 41.5 140.001 41.5c70 0 119 -28.667 147 -86
c25.333 -51.333 30.333 -113.333 15 -186zM521.998 259c14 68 10.335 125.334 -10.998 172.001c-25.333 53.333 -70.333 80 -135 80c-68.667 0 -127 -25.667 -175 -77c-42.667 -45.333 -71.334 -103.666 -86.001 -174.999l-44 -202c12.667 -11.333 26.667 -20.333 42 -27
s31.333 -11.834 48 -15.501s34 -5.83398 52 -6.50098s36.667 -0.666992 56 0c65.333 0 121.666 26.333 168.999 79c41.333 46 69.333 103.333 84 172z" />
    <glyph glyph-name="c" unicode="c" horiz-adv-x="491" 
d="M503 177c-17.333 -57.333 -48.833 -103.167 -94.5 -137.5s-97.5 -51.5 -155.5 -51.5c-70.667 0 -121.334 26 -152.001 78c-29.333 48.667 -36.333 109.334 -21 182.001c17.333 80.667 51 146.667 101 198c54.667 56.667 121 85 199 85c52 0 92.667 -15.333 122 -46
s41.333 -71.667 36 -123h-20c2.66699 46 -8.66602 82.333 -33.999 109s-61.333 40 -108 40c-72 0 -133.333 -26.667 -184 -80c-45.333 -47.333 -76 -108.333 -92 -183c-14 -66.667 -8 -122.334 18 -167.001c28 -48.667 74.333 -73 139 -73c51.333 0 98.333 15.5 141 46.5
s71 71.833 85 122.5h20z" />
    <glyph glyph-name="d" unicode="d" horiz-adv-x="497" 
d="M456 0h-20.002l30 145h-2c-23.333 -47.333 -56.666 -85.333 -99.999 -114s-89.666 -43 -138.999 -43c-70.667 0 -120 28.333 -148 85c-24.667 50 -29 112 -13 186c15.333 72.667 46.333 134.667 93 186c52 57.333 113 86 183 86c51.333 0 92.5 -13.833 123.5 -41.5
s47.5 -66.167 49.5 -115.5h2l74 347h20zM490.998 259c15.333 72 11.333 130.333 -12 175c-26 51.333 -73.667 77 -143 77c-64.667 0 -120.667 -26.667 -168 -80c-42 -46.667 -70 -104 -84 -172c-14.667 -68.667 -11.334 -126 9.99902 -172
c24.667 -52.667 69.667 -79 135 -79s123 26.333 173 79c44.667 46.667 74.334 104 89.001 172z" />
    <glyph glyph-name="e" unicode="e" horiz-adv-x="505" 
d="M533 256l-430.002 0.000976562c-14.667 -73.333 -11.667 -131.333 9 -174c24 -49.333 71 -74 141 -74c54.667 0 103.167 15.167 145.5 45.5s73.166 72.5 92.499 126.5h20c-19.333 -58.667 -52.666 -105.334 -99.999 -140.001s-100.666 -52 -159.999 -52
c-76.667 0 -129 27 -157 81c-24 47.333 -27.333 111 -10 191c15.333 72 47.333 133.667 96 185c54.667 57.333 116.667 86 186 86c74.667 0 126.334 -28 155.001 -84c24.667 -49.333 28.667 -113 12 -191zM516.998 276.001c14 66 8.66602 120.667 -16.001 164
c-27.333 47.333 -73 71 -137 71c-62 0 -117.333 -24.333 -166 -73c-43.333 -43.333 -73.666 -97.333 -90.999 -162h410z" />
    <glyph glyph-name="f" unicode="f" horiz-adv-x="206" 
d="M354 697c-16 2.66699 -31.3311 4 -45.998 4c-28.667 0 -49.834 -5.33301 -63.501 -16s-23.5 -30 -29.5 -58l-23 -108h111l-4 -20h-111l-106 -499h-20l106 499h-50l4 20h50l20 94c5.33301 36 15.666 62 30.999 78c20.667 20 51.667 30 93 30
c1.33301 0 15.333 -1.33301 42 -4z" />
    <glyph glyph-name="g" unicode="g" horiz-adv-x="503" 
d="M468 17c-14.667 -68 -44.168 -119.666 -88.501 -154.999s-100.833 -53 -169.5 -53c-56 0 -98.667 13 -128 39c-32 29.333 -43 71 -33 125h20c-8.66699 -48 1.33301 -84.667 30 -110c26 -22.667 64 -34 114 -34c130 0 208.333 62.667 235 188l33 157h-2
c-19.333 -44 -51.333 -79.333 -96 -106s-90.334 -40 -137.001 -40c-68.667 0 -117 25 -145 75c-25.333 45.333 -30.666 103.333 -15.999 174c15.333 72 46.333 131.333 93 178c51.333 50.667 112 76 182 76c84.667 -2.66699 154.334 -16.334 209.001 -41.001z
M501.999 277.001l41 198.999c-22 12.667 -48.333 21.5 -79 26.5s-66.667 7.83301 -108 8.5c-64 0 -119.333 -23.667 -166 -71c-42.667 -42.667 -71 -97 -85 -163c-13.333 -64.667 -8.66602 -117.667 14.001 -159c25.333 -46.667 69 -70 131 -70
c63.333 0 118.666 22.667 165.999 68c44 42.667 72.667 96.334 86 161.001z" />
    <glyph glyph-name="h" unicode="h" horiz-adv-x="443" 
d="M191 714h20l-69 -327h2c8.66699 20 20 38.333 34 55s30.167 31.334 48.5 44.001s38.5 22.5 60.5 29.5s45.667 10.5 71 10.5c26.667 0 50.334 -4 71.001 -12s37.5 -19.833 50.5 -35.5s21.667 -35 26 -58s3.16602 -49.5 -3.50098 -79.5l-72 -341h-20l71 338
c6.66699 30 7.83398 55.5 3.50098 76.5s-12.5 38.333 -24.5 52s-27.167 23.667 -45.5 30s-38.5 9.5 -60.5 9.5c-30.667 0 -58.834 -5.83301 -84.501 -17.5s-48.5 -27.334 -68.5 -47.001s-36.833 -42.5 -50.5 -68.5s-23.5 -53.333 -29.5 -82l-61 -291h-20z" />
    <glyph glyph-name="i" unicode="i" horiz-adv-x="112" 
d="M189 619h-20l22 102h20zM58 0h-20l110 519h20z" />
    <glyph glyph-name="j" unicode="j" horiz-adv-x="161" 
d="M255 619h-20l22 102h20zM107 -76c-8.66699 -43.333 -24.999 -71.999 -48.999 -85.999c-18 -10.667 -50 -16.334 -96 -17.001l5 20c41.333 0 68.666 4.33301 81.999 13c18 11.333 31.333 37 40 77l125 588h20z" />
    <glyph glyph-name="k" unicode="k" horiz-adv-x="463" 
d="M461 0h-27l-176 307l-157 -111l-41 -196h-20l153 721h20l-107 -500l419 298h29l-278 -198z" />
    <glyph glyph-name="l" unicode="l" horiz-adv-x="173" 
d="M80 101c-10.667 -54 7.33301 -81 54 -81c10.667 0 25 1 43 3l-4 -20c-22.667 -2 -39 -3 -49 -3c-56 -0 -77.667 32.333 -65 97l133 624h20z" />
    <glyph glyph-name="m" unicode="m" horiz-adv-x="747" 
d="M149 514l20.0049 0.000976562l-27 -127h2c8.66699 20 20 38.333 34 55s29.5 31.334 46.5 44.001s35 22.5 54 29.5s38.5 10.5 58.5 10.5c40.667 1.33301 72.167 -8.83398 94.5 -30.501s33.833 -51.5 34.5 -89.5h2c17.333 36 43.166 65 77.499 87s71.166 33 110.499 33
c30.667 0 55.5 -4.66699 74.5 -14s33.167 -22.166 42.5 -38.499s14.166 -36 14.499 -59s-2.5 -48.5 -8.5 -76.5l-71 -338h-20l71 338c5.33301 25.333 8.16602 48.333 8.49902 69s-3.5 38.334 -11.5 53.001s-20.333 26 -37 34s-39 12 -67 12
c-25.333 0 -48.833 -4.83301 -70.5 -14.5s-41.334 -22.834 -59.001 -39.501s-32.5 -35.834 -44.5 -57.501s-20.333 -44.5 -25 -68.5l-69 -326h-20l70 330c4.66699 24 7.5 46.667 8.5 68s-1.83301 40 -8.5 56s-18 28.667 -34 38s-38.333 14 -67 14
c-25.333 0 -49.5 -5.83301 -72.5 -17.5s-43.833 -27.334 -62.5 -47.001s-34.667 -42.5 -48 -68.5s-23 -53.333 -29 -82l-61 -291h-20z" />
    <glyph glyph-name="n" unicode="n" horiz-adv-x="467" 
d="M430 0h-20.002l72 341c11.333 52 5.83301 93.333 -16.5 124s-59.166 46 -110.499 46c-58.667 0 -110 -22 -154 -66c-40 -40 -66.333 -90.333 -79 -151l-62 -294h-20l110 519h20l-27 -128h2c19.333 43.333 48.5 77.5 87.5 102.5s81.167 37.5 126.5 37.5
c56.667 0 97.834 -17 123.501 -51s32.5 -79.333 20.5 -136z" />
    <glyph glyph-name="o" unicode="o" horiz-adv-x="520" 
d="M547 260c-16 -74.667 -48.999 -137.334 -98.999 -188.001c-54.667 -56 -118.334 -84 -191.001 -84c-72 0 -123.667 28 -155 84c-28 50.667 -34 113.334 -18 188.001c15.333 74 48.333 136.667 99 188c54.667 55.333 118 83 190 83s123.667 -28 155 -84
c28 -50.667 34.333 -113 19 -187zM527.001 260c14 68 8.66797 125.668 -15.999 173.001c-28.667 52 -76 78 -142 78s-124 -26 -174 -78c-46 -46.667 -76.333 -104.334 -91 -173.001c-14.667 -69.333 -9.33398 -127.333 15.999 -174c28 -52 75.333 -78 142 -78s125 26 175 78
c45.333 47.333 75.333 105.333 90 174z" />
    <glyph glyph-name="p" unicode="p" horiz-adv-x="497" 
d="M542 261c-15.333 -73.333 -46.333 -135.333 -93 -186c-52.667 -58 -114 -87 -184 -87c-50.667 0 -91.5 14 -122.5 42s-47.833 66.333 -50.5 115h-2l-69 -324h-20l144 671c72.667 30.667 151 43.667 235 39c70.667 0 120 -28.333 148 -85c25.333 -49.333 30 -111 14 -185z
M522 261c14.667 68 11.001 125.002 -10.999 171.002c-24.667 52.667 -69.667 79 -135 79c-29.333 1.33301 -62.666 0.166016 -99.999 -3.50098s-75.333 -13.834 -114 -30.501l-47 -216c-15.333 -72 -11.333 -130.667 12 -176c25.333 -51.333 72.666 -77 141.999 -77
c65.333 0 121.666 27 168.999 81c41.333 46.667 69.333 104 84 172z" />
    <glyph glyph-name="q" unicode="q" horiz-adv-x="498" 
d="M418 -179h-19.998l69 324h-2c-22.667 -48.667 -55.5 -87 -98.5 -115s-89.833 -42 -140.5 -42c-70 0 -119.333 29 -148 87c-24 50.667 -28.333 112.667 -13 186c16 74 46.667 135.667 92 185c52 56.667 113.333 85 184 85c49.333 0 89.666 -14.333 120.999 -43
s48.666 -66.667 51.999 -114h2l31 145h20zM492.002 261c14 67.333 9.00098 124.667 -14.999 172c-28 52 -74.667 78 -140 78s-121.666 -26.333 -168.999 -79c-40.667 -46 -68.334 -103 -83.001 -171s-11.334 -125.333 9.99902 -172c24.667 -54 69.667 -81 135 -81
c69.333 0 128 25.667 176 77c42 45.333 70.667 104 86 176z" />
    <glyph glyph-name="r" unicode="r" horiz-adv-x="264" 
d="M60 0h-20.001l109 514h20l-27 -127h2c8.66699 18.667 19.834 36.667 33.501 54s30.167 32.5 49.5 45.5s41.333 23 66 30s52 10.167 82 9.5l-4 -20c-34.667 2 -66.167 -2.83301 -94.5 -14.5s-53 -27.667 -74 -48s-38.333 -43.833 -52 -70.5s-23.5 -54 -29.5 -82z" />
    <glyph glyph-name="s" unicode="s" horiz-adv-x="449" 
d="M449 132c-10.667 -47.333 -38.667 -84 -84 -110c-38.667 -22.667 -83 -34 -133 -34c-138.667 0 -194.667 63.333 -168 190h20c-24 -113.333 26.667 -170 152 -170c43.333 0 82.333 9.33301 117 28c41.333 22 66.333 53.333 75 94
c10.667 50.667 -12.333 86.334 -69 107.001l-161 44c-56 23.333 -78 63.333 -66 120c9.33301 43.333 35.333 76.666 78 99.999c36 20 77 30 123 30c124 0 174.333 -55 151 -165h-20c20.667 96.667 -24.333 145 -135 145c-40 0 -75.667 -8 -107 -24
c-38.667 -20 -62 -48.667 -70 -86c-10.667 -49.333 12.333 -84.333 69 -105l161 -45c56 -23.333 78.333 -63 67 -119z" />
    <glyph glyph-name="t" unicode="t" horiz-adv-x="207" 
d="M313 499h-116l-106 -499h-20l106 499h-64l4 20h64l26 123l29 41l-35 -164h116z" />
    <glyph glyph-name="u" unicode="u" horiz-adv-x="468" 
d="M427 0h-20l27 128h-2c-20 -43.333 -49.5 -77.5 -88.5 -102.5s-81.167 -37.5 -126.5 -37.5c-56.667 0 -97.667 17 -123 51s-32 79.333 -20 136l73 344h20l-73 -341c-10.667 -52 -5 -93.333 17 -124s58.667 -46 110 -46c58.667 0 110 22 154 66c40 40 66.333 90.333 79 151
l63 294h20z" />
    <glyph glyph-name="v" unicode="v" horiz-adv-x="459" 
d="M558 519l-304 -519h-25l-102 519h24l93 -499h2l290 499h22z" />
    <glyph glyph-name="w" unicode="w" horiz-adv-x="752" 
d="M837 519l-274 -519h-26l-54 499h-2l-267 -499h-28l-50 519h20l47 -499h2l265 499h31l52 -499h2l262 499h20z" />
    <glyph glyph-name="x" unicode="x" horiz-adv-x="493" 
d="M465 0h-25l-141 254l-246 -254h-25l263 269l-134 250h26l123 -235l227 235h24l-241 -250z" />
    <glyph glyph-name="y" unicode="y" horiz-adv-x="457" 
d="M559 519l-370 -625c-18.667 -31.333 -40.667 -52 -66 -62c-19.333 -7.33301 -48 -11 -86 -11l5 20c39.333 0 69.333 6 90 18c18 10 34.667 28.333 50 55l52 91l-106 514h22l99 -492l289 492h21z" />
    <glyph glyph-name="z" unicode="z" horiz-adv-x="410" 
d="M404 0h-397l5 25l461 474h-333l4 20h354l-5 -25l-461 -474h376z" />
    <glyph glyph-name="braceleft" unicode="{" horiz-adv-x="204" 
d="M162 -179h-49.999c-28.667 0 -46 11.667 -52 35c-5.33301 18 -4 47 4 87l16 64c7.33301 29.333 12.666 52 15.999 68c21.333 99.333 10.666 165.333 -32.001 198l4 20c28 4.66699 51 23.667 69 57c13.333 25.333 25.333 63.666 36 114.999
c2.66699 11.333 6.16699 29 10.5 53s7.83301 41.667 10.5 53c11.333 53.333 24.333 92.333 39 117c18.667 33.333 43.334 50 74.001 50h50l-4 -20h-48c-38 0 -66 -42.333 -84 -127c-2 -11.333 -5.5 -30 -10.5 -56l-11.5 -59c-23.333 -109.333 -61.333 -174.333 -114 -195
c44 -23.333 54.333 -89.666 31 -198.999c-2.66699 -13.333 -7.16699 -33 -13.5 -59s-10.833 -45 -13.5 -57c-17.333 -83.333 -7.33301 -125 30 -125h48z" />
    <glyph glyph-name="bar" unicode="|" horiz-adv-x="116" 
d="M56 -17h-20l160 755h20z" />
    <glyph glyph-name="braceright" unicode="}" horiz-adv-x="204" 
d="M254 267c-28 -4.66699 -50.6689 -23.999 -68.002 -57.999c-13.333 -25.333 -25.666 -63.666 -36.999 -114.999c-2 -11.333 -5.33301 -29 -10 -53c-4.66699 -23.333 -8.33398 -41 -11.001 -53c-11.333 -53.333 -24 -92.333 -38 -117
c-19.333 -33.333 -44.666 -50 -75.999 -50h-49l5 20h47c22.667 0 41 12.333 55 37c10.667 18.667 20.334 49 29.001 91c2.66699 11.333 6.33398 29.833 11.001 55.5s8.33398 45.167 11.001 58.5c23.333 110 61.333 175.333 114 196c-43.333 23.333 -53.333 89.333 -30 198
c2.66699 13.333 7.16699 33.166 13.5 59.499s10.833 45.5 13.5 57.5c17.333 82.667 7 124 -31 124h-48l4 20h50c29.333 0 47.333 -11.667 54 -35c5.33301 -18.667 3.66602 -48 -5.00098 -88c-2.66699 -12.667 -7.83398 -33.834 -15.501 -63.501s-13.167 -52.5 -16.5 -68.5
c-20.667 -98.667 -9.66699 -164 33 -196z" />
    <glyph glyph-name="asciitilde" unicode="~" horiz-adv-x="504" 
d="M539 298c-48 -58 -90.667 -87 -128 -87c-21.333 0 -53.166 11.667 -95.499 35s-78.5 35 -108.5 35c-36.667 0 -74.667 -24.667 -114 -74l-18 6c42.667 58.667 88 88 136 88c28 0 65.167 -11.667 111.5 -35s77.833 -35 94.5 -35c27.333 0 61.666 24.333 102.999 73z" />
    <glyph glyph-name="nonbreakingspace" unicode="&#xa0;" horiz-adv-x="205" 
 />
    <glyph glyph-name="exclamdown" unicode="&#xa1;" horiz-adv-x="112" 
d="M153 448h-20l21 99h20zM19 -179h-19l115 543h20z" />
    <glyph glyph-name="cent" unicode="&#xa2;" horiz-adv-x="465" 
d="M492 177c-18.667 -56.667 -50 -102.17 -94 -136.503s-94.333 -51.833 -151 -52.5l-23 -110h-20l23 110c-68 2.66699 -115.333 32.334 -142 89.001c-24 50.667 -28.333 112 -13 184c14.667 70 45 130.333 91 181c51.333 56 111 85.333 179 88l19 89h20l-19 -89
c54 -1.33301 95.667 -16.333 125 -45c32 -30 45 -71 39 -123h-20c3.33301 46.667 -8.5 82.834 -35.5 108.501s-64.5 38.834 -112.5 39.501l-107 -502h5c48.667 0 93.167 16 133.5 48s67.833 72.333 82.5 121h20zM231 7.99707l107.001 502
c-62.667 -2 -117.334 -29.333 -164.001 -82c-40.667 -46 -68 -101.667 -82 -167c-14 -66.667 -10.667 -123 10 -169c24 -54 67 -82 129 -84z" />
    <glyph glyph-name="sterling" unicode="&#xa3;" horiz-adv-x="554" 
d="M549 73c-64.667 -60 -126.333 -90.002 -185 -90.002c-23.333 0 -54.333 8.33301 -93 25s-69 25 -91 25c-42.667 0 -88 -16.667 -136 -50l-14 20c93.333 68 147.333 137.333 162 208c12 54.667 11 100.334 -3 137.001h-76l5 21h66l-28 87c-8.66699 34.667 -10 66 -4 94
c13.333 60.667 46.666 108 99.999 142c47.333 30.667 102.666 46 165.999 46c70 0 122.333 -19 157 -57c36.667 -40 46.334 -93.667 29.001 -161l-9 -35h-20l7 30c15.333 63.333 7.33301 113 -24 149s-79.333 54 -144 54c-58 0 -108.333 -13.333 -151 -40
c-48.667 -30 -79 -72.667 -91 -128c-5.33301 -27.333 -3.66602 -58.666 5.00098 -93.999l30 -87h158l-5 -21h-149c12.667 -36 13 -81.667 1 -137c-14.667 -71.333 -61.334 -135.666 -140.001 -192.999l2 -2c38.667 25.333 75.334 38 110.001 38
c22.667 0 53.5 -8.5 92.5 -25.5s69.5 -25.5 91.5 -25.5c29.333 0 59.333 8.66699 90 26c20.667 11.333 47.667 30.666 81 57.999z" />
    <glyph glyph-name="currency" unicode="&#xa4;" horiz-adv-x="562" 
d="M601 343c-13.333 -64.667 -47.333 -121 -102 -169l45 -58l-17 -14l-44 58c-58 -44.667 -119 -67 -183 -67c-64.667 0 -115.667 22.333 -153 67l-70 -58l-11 14l69 58c-33.333 48 -43.333 104.333 -30 169c14 65.333 48.333 122 103 170l-45 58l17 14l45 -58
c56.667 44.667 117.334 67 182.001 67c65.333 0 116.666 -22.333 153.999 -67l69 58l11 -14l-69 -58c33.333 -47.333 43 -104 29 -170zM581 343c14 63.333 3.50195 117.668 -31.498 163.001s-83.833 68 -146.5 68s-121.334 -22.833 -176.001 -68.5
s-88.667 -99.834 -102 -162.501s-2.33301 -116.667 33 -162s84.333 -68 147 -68c62 0 120.167 22.667 174.5 68s88.166 99.333 101.499 162z" />
    <glyph glyph-name="yen" unicode="&#xa5;" horiz-adv-x="536" 
d="M678 721l-321 -393h136l-4 -20h-147l-22 -103h147l-4 -20h-147l-39 -185h-20l39 185h-147l4 20h147l22 103h-147l4 20h138l-153 393h22l151 -387h2l317 387h22z" />
    <glyph glyph-name="brokenbar" unicode="&#xa6;" horiz-adv-x="95" 
d="M155 447h-20l61 291h20zM56 -17h-20l62 291h20z" />
    <glyph glyph-name="section" unicode="&#xa7;" horiz-adv-x="487" 
d="M508 206c-6 -30.667 -23.501 -58.835 -52.501 -84.502s-60.167 -43.167 -93.5 -52.5c33.333 -33.333 45.333 -70.666 36 -111.999c-10 -47.333 -32.833 -83.833 -68.5 -109.5s-77.834 -38.5 -126.501 -38.5c-58 0 -98 18.333 -120 55
c-21.333 34.667 -25.666 81.667 -12.999 141h20c-25.333 -117.333 13.667 -176 117 -176c37.333 0 71.666 9.66699 102.999 29c35.333 22 57 50.667 65 86c10.667 52 -10.666 100 -63.999 144l-152 108c-53.333 46.667 -73.666 99.334 -60.999 158.001
c6 30 23.333 58.667 52 86c26 25.333 55 43.333 87 54c-29.333 29.333 -39.333 66 -30 110c9.33301 43.333 32.333 77 69 101c34 22 73 33 117 33c53.333 0 92 -18 116 -54c22 -34.667 27.333 -79 16 -133h-20c9.33301 51.333 5 91.333 -13 120c-20 31.333 -55 47 -105 47
c-38 0 -71.333 -9.66699 -100 -29c-32.667 -21.333 -53 -50.333 -61 -87c-8.66699 -43.333 14.333 -85.333 69 -126l154 -108c52 -48 71.667 -102 59 -162zM487.999 206.999c8.66699 39.333 -1.33203 77.668 -29.999 115.001c-20.667 28 -54.334 57.667 -101.001 89l-105 69
c-32 -9.33301 -61 -26.5 -87 -51.5s-42.333 -52.833 -49 -83.5c-10 -46 16.667 -96 80 -150l150 -112c32 6.66699 62.167 21.667 90.5 45s45.5 49.666 51.5 78.999z" />
    <glyph glyph-name="dieresis" unicode="&#xa8;" horiz-adv-x="258" 
d="M342 596h-20l18 82h20zM186 596h-20l18 82h20z" />
    <glyph glyph-name="copyright" unicode="&#xa9;" horiz-adv-x="802" 
d="M851 361c-22 -103.333 -77.333 -192.166 -166 -266.499s-184.667 -111.5 -288 -111.5s-183.666 37.167 -240.999 111.5s-75 163.166 -53 266.499s77.333 192 166 266s184.667 111 288 111s183.666 -37 240.999 -111s75 -162.667 53 -266zM831 361
c20.667 98 4 182 -50 252s-130 105 -228 105s-189 -35 -273 -105s-136.333 -154 -157 -252s-4 -182.167 50 -252.5s130 -105.5 228 -105.5s189 35.167 273 105.5s136.333 154.5 157 252.5zM653 279c-20.667 -46 -49.666 -83.335 -86.999 -112.002
c-40.667 -30.667 -83.667 -46 -129 -46c-66 0 -114.333 22.333 -145 67s-39 100.334 -25 167.001c14 67.333 45.167 122.5 93.5 165.5s105.833 64.5 172.5 64.5c48.667 0 87.167 -13.667 115.5 -41s40.5 -64.666 36.5 -111.999h-20c3.33301 41.333 -8 73.833 -34 97.5
s-60 35.5 -102 35.5c-60.667 0 -112.834 -19.5 -156.501 -58.5s-72.167 -89.167 -85.5 -150.5c-12.667 -61.333 -5.66699 -112 21 -152c28 -42 72.333 -63 133 -63c40 0 77.5 13 112.5 39s61.5 59 79.5 99h20z" />
    <glyph glyph-name="ordfeminine" unicode="&#xaa;" horiz-adv-x="353" 
d="M408 378c-28 -0.666992 -43.666 4.66504 -46.999 15.998c-1.33301 4.66699 1.33398 23.334 8.00098 56.001h-2c-0.666992 -24 -21.334 -44 -62.001 -60c-32 -12.667 -61 -19 -87 -19c-30.667 0 -54.667 6.33301 -72 19c-20.667 14.667 -28 36.667 -22 66
c10 46 37.667 74.667 83 86c2.66699 1.33301 42.667 5 120 11c43.333 4 67.666 18.667 72.999 44c12 54.667 -14.333 82 -79 82s-106.667 -28.333 -126 -85h-20c22 70 72 105 150 105s110.667 -30 98 -90l-41 -192c-2.66699 -13.333 7.33301 -19.666 30 -18.999z
M382.001 508.999l10.001 49h-2c-11.333 -13.333 -37.333 -21.333 -78 -24c-54 -4 -88.333 -8 -103 -12c-36 -10.667 -57.667 -32.667 -65 -66c-8.66699 -43.333 17.666 -65 78.999 -65c38 0 72 10.333 102 31s49 49.667 57 87z" />
    <glyph glyph-name="guillemotleft" unicode="&#xab;" horiz-adv-x="249" 
d="M234 122l-73 141l4 16l133 140l-8 -35l-107 -113l59 -113zM141 122l-73 141l4 16l133 140l-8 -35l-107 -113l59 -113z" />
    <glyph glyph-name="logicalnot" unicode="&#xac;" horiz-adv-x="545" 
d="M523 94h-20l53 249h-484l5 21h504z" />
    <glyph glyph-name="minus" unicode="&#xad;" horiz-adv-x="585" 
d="M595 243h-504l4 20h504z" />
    <glyph glyph-name="minus" unicode="&#x2212;" horiz-adv-x="585" 
d="M595 243h-504l4 20h504z" />
    <glyph glyph-name="registered" unicode="&#xae;" horiz-adv-x="802" 
d="M851 361c-22 -103.333 -77.333 -192.166 -166 -266.499s-184.667 -111.5 -288 -111.5s-183.666 37.167 -240.999 111.5s-75 163.166 -53 266.499s77.333 192 166 266s184.667 111 288 111s183.666 -37 240.999 -111s75 -162.667 53 -266zM831 361
c20.667 98 4 182 -50 252s-130 105 -228 105s-189 -35 -273 -105s-136.333 -154 -157 -252s-4 -182.167 50 -252.5s130 -105.5 228 -105.5s189 35.167 273 105.5s136.333 154.5 157 252.5zM606 136l-25 0.000976562l-86 202c-7.33301 -0.666992 -50.333 -1 -129 -1l-43 -201
h-20l93 435h141c94.667 0 133.667 -39.333 117 -118c-7.33301 -33.333 -23.333 -59.833 -48 -79.5s-54 -30.834 -88 -33.501zM634 453.001c13.333 64.667 -21.333 97 -104 97h-119l-40 -192h104c92.667 0 145.667 31.667 159 95z" />
    <glyph glyph-name="macron" unicode="&#xaf;" horiz-adv-x="313" 
d="M406 634h-232l5 20h232z" />
    <glyph glyph-name="macron" unicode="&#x2c9;" horiz-adv-x="313" 
d="M406 634h-232l5 20h232z" />
    <glyph glyph-name="degree" unicode="&#xb0;" horiz-adv-x="342" 
d="M431 554c-8 -40 -29.001 -74.333 -63.001 -103s-71 -43 -111 -43c-40.667 0 -71.5 14.333 -92.5 43s-27.5 63 -19.5 103c8.66699 39.333 29.834 73.333 63.501 102s70.5 43 110.5 43c39.333 0 70 -14.333 92 -43s28.667 -62.667 20 -102zM410.999 554
c7.33301 34.667 1.66699 64.167 -17 88.5s-45 36.5 -79 36.5c-32.667 0 -64 -12.667 -94 -38s-48.667 -54.333 -56 -87c-7.33301 -34.667 -1.83301 -64.334 16.5 -89.001s44.833 -37 79.5 -37s66.5 12.333 95.5 37s47.167 54.334 54.5 89.001z" />
    <glyph glyph-name="plusminus" unicode="&#xb1;" horiz-adv-x="506" 
d="M566 291h-242l-42 -200h-20l42 200h-242l5 20h242l42 200h20l-42 -200h242zM505 0h-504l4 20h504z" />
    <glyph glyph-name="twosuperior" unicode="&#xb2;" horiz-adv-x="340" 
d="M387 280l-298.001 0.00195312c8.66699 39.333 39.667 76.666 93 111.999l146 87c54 36 85.333 74.333 94 115c6 29.333 -2 51.666 -24 66.999c-18 12 -42.667 18 -74 18c-81.333 0 -130.666 -40.667 -147.999 -122h-20c22 94.667 79.333 142 172 142
c38 0 67.333 -7.66699 88 -23c24.667 -18.667 33.334 -46 26.001 -82c-9.33301 -42.667 -40 -83 -92 -121c-2 -1.33301 -49.333 -30 -142 -86c-52.667 -32 -83.334 -61 -92.001 -87h275z" />
    <glyph glyph-name="threesuperior" unicode="&#xb3;" horiz-adv-x="366" 
d="M418 394c-8 -38 -30.3369 -68.333 -67.0039 -91c-32 -20 -67.667 -30 -107 -30c-49.333 0 -85.666 11.667 -108.999 35c-25.333 26 -32.666 63 -21.999 111h20c-18 -84 20 -126 114 -126c34 0 65 8 93 24c32 18.667 51.333 44.334 58 77.001
c8.66699 40 -2.33301 67.333 -33 82c-20.667 10 -53.667 15 -99 15l4 21c42.667 0 75.334 4 98.001 12c36 13.333 58 38 66 74c11.333 54 -23 81 -103 81c-86.667 0 -138 -38 -154 -114h-20c8.66699 43.333 30.334 77 65.001 101c31.333 22 69.333 33 114 33
c92.667 0 132 -33.667 118 -101c-6.66699 -28.667 -21.667 -51.834 -45 -69.501s-49.333 -26.5 -78 -26.5v-2c32 -2 56.333 -11.667 73 -29c16 -19.333 20.667 -45 14 -77z" />
    <glyph glyph-name="acute" unicode="&#xb4;" horiz-adv-x="168" 
d="M322 738l-176 -145h-15l162 145h29z" />
    <glyph glyph-name="mu" unicode="&#xb5;" horiz-adv-x="445" 
d="M429 0h-19.999l27 128h-2c-19.333 -43.333 -48.5 -77.5 -87.5 -102.5s-81.5 -37.5 -127.5 -37.5c-79.333 0 -126 31.333 -140 94h-2l-56 -261h-20l149 698h19l-73 -341c-10.667 -52 -5 -93.333 17 -124s58.667 -46 110 -46c129.333 0 216 103.667 260 311
c6 28 12.667 64.833 20 110.5s12.666 75.5 15.999 89.5h20z" />
    <glyph glyph-name="mu" unicode="&#x3bc;" horiz-adv-x="445" 
d="M429 0h-19.999l27 128h-2c-19.333 -43.333 -48.5 -77.5 -87.5 -102.5s-81.5 -37.5 -127.5 -37.5c-79.333 0 -126 31.333 -140 94h-2l-56 -261h-20l149 698h19l-73 -341c-10.667 -52 -5 -93.333 17 -124s58.667 -46 110 -46c129.333 0 216 103.667 260 311
c6 28 12.667 64.833 20 110.5s12.666 75.5 15.999 89.5h20z" />
    <glyph glyph-name="paragraph" unicode="&#xb6;" horiz-adv-x="477" 
d="M406 -141h-20.001l179 842h-163l-179 -842h-20l100 472c-58.667 0 -105.667 17 -141 51c-39.333 36.667 -52.666 83.667 -39.999 141c13.333 65.333 45.333 115.333 96 150c46 32 102.333 48 169 48h202z" />
    <glyph glyph-name="periodcentered" unicode="&#xb7;" horiz-adv-x="127" 
d="M168 343c-4 -21.333 -16.666 -32 -37.999 -32s-30 10.667 -26 32c4.66699 22 17.667 33 39 33s29.666 -11 24.999 -33z" />
    <glyph glyph-name="periodcentered" unicode="&#x2219;" horiz-adv-x="127" 
d="M168 343c-4 -21.333 -16.666 -32 -37.999 -32s-30 10.667 -26 32c4.66699 22 17.667 33 39 33s29.666 -11 24.999 -33z" />
    <glyph glyph-name="cedilla" unicode="&#xb8;" horiz-adv-x="215" 
d="M170 -111c-10.667 -49.333 -48.6689 -74 -114.002 -74c-18.667 0 -44.334 5.66699 -77.001 17l13 20c26 -11.333 48.667 -17 68 -17c52 0 82 18 90 54c2.66699 12 -1.16602 21.667 -11.499 29s-22.166 11 -35.499 11c-21.333 0 -40 -4.33301 -56 -13l-13 10l73 74h20
l-54 -57c3.33301 0.666992 9.33301 2 18 4c6.66699 1.33301 12.334 2 17.001 2c50 0 70.667 -20 62 -60z" />
    <glyph glyph-name="onesuperior" unicode="&#xb9;" horiz-adv-x="181" 
d="M198 280l-20.001 -0.000976562l83 389h-2c-30 -33.333 -74.333 -57.666 -133 -72.999l4 19c46.667 14 91.334 39.667 134.001 77h22z" />
    <glyph glyph-name="ordmasculine" unicode="&#xba;" horiz-adv-x="359" 
d="M443 536c-9.33301 -46.667 -30.667 -85.333 -64 -116c-35.333 -32.667 -76 -49 -122 -49c-45.333 0 -78.166 16 -98.499 48s-25.833 71 -16.5 117c10 46 32.167 84.667 66.5 116s74.166 47 119.499 47c46 0 79.667 -16 101 -48c19.333 -30.667 24 -69 14 -115z
M422.999 536.001c8.66699 38.667 4 72.167 -14 100.5s-46.333 42.5 -85 42.5c-38 0 -72.333 -14.167 -103 -42.5s-50.334 -61.833 -59.001 -100.5c-8 -39.333 -2.66699 -73.333 16 -102s47 -43 85 -43c38.667 0 73.334 15 104.001 45c29.333 28 48 61.333 56 100z" />
    <glyph glyph-name="guillemotright" unicode="&#xbb;" horiz-adv-x="249" 
d="M291 263l-133 -141l8 36l107 113l-59 113l8 35l73 -140zM198 263l-133 -141l8 36l107 113l-59 113l8 35l73 -140z" />
    <glyph glyph-name="onequarter" unicode="&#xbc;" horiz-adv-x="668" 
d="M670 103h-76l-21 -103h-20l21 103h-221l6 25l276 284h25l-61 -289h76zM714 721l-637 -755h-23l637 755h23zM218 280l-20.001 -0.000976562l83 389h-2c-30 -33.333 -74.333 -57.666 -133 -72.999l4 19c46.667 14 91.334 39.667 134.001 77h22zM578.999 122.999l53 260
l-253 -260h200z" />
    <glyph glyph-name="onehalf" unicode="&#xbd;" horiz-adv-x="742" 
d="M728 0h-298c8 40 38.667 77.667 92 113l147 87c53.333 36 84.333 74 93 114c6.66699 30 -1.33301 52.333 -24 67c-18 12 -42.667 18 -74 18c-82 0 -131.333 -40.667 -148 -122h-20c22 94.667 79.667 142 173 142c38 0 67.333 -7.66699 88 -23
c24.667 -18.667 33 -46 25 -82c-8.66699 -42.667 -39 -83 -91 -121c-2.66699 -1.33301 -50.667 -30 -144 -86c-52 -32 -82 -61 -90 -87h275zM707 721l-637 -755h-23l637 755h23zM221 280l-20.001 -0.000976562l83 389h-2c-30.667 -33.333 -75 -57.666 -133 -72.999l4 19
c46.667 14 91.334 39.667 134.001 77h22z" />
    <glyph glyph-name="threequarters" unicode="&#xbe;" horiz-adv-x="766" 
d="M765 103h-76l-21 -103h-20l21 103h-221l6 25l276 284h25l-61 -289h76zM815 721l-637 -755h-23l637 755h23zM414 394c-8 -38 -30.334 -68.333 -67.001 -91c-32 -20 -67.667 -30 -107 -30c-49.333 0 -86 11.667 -110 35c-24.667 26 -31.667 63 -21 111h20
c-18 -84 20 -126 114 -126c34 0 65 8 93 24c32 18.667 51.333 44.334 58 77.001c7.33301 34 -0.333984 59.667 -23.001 77c-20 14.667 -47.333 22 -82 22c-9.33301 0 -18.333 -0.666992 -27 -2l4 21c42.667 0 75.334 4 98.001 12c36 13.333 58 38 66 74
c11.333 54 -23 81 -103 81c-86.667 0 -138 -38 -154 -114h-20c8.66699 43.333 30.334 77 65.001 101c31.333 22 69.333 33 114 33c92.667 0 132 -33.667 118 -101c-6.66699 -28.667 -21.667 -51.834 -45 -69.501s-49.333 -26.5 -78 -26.5v-2c32 -2 56 -11.667 72 -29
c16.667 -19.333 21.667 -45 15 -77zM673.999 123l53 260l-253 -260h200z" />
    <glyph glyph-name="questiondown" unicode="&#xbf;" horiz-adv-x="433" 
d="M323 448h-20l21 99h20zM435 49c-15.333 -71.333 -45.667 -128.334 -91 -171.001c-48.667 -46 -107.667 -69 -177 -69c-55.333 0 -98 14 -128 42c-32.667 30.667 -43.667 72.667 -33 126c10.667 51.333 37 96.333 79 135l115 97c43.333 42.667 71.333 94.334 84 155.001
h20c-14 -64 -42.667 -118 -86 -162l-114 -98c-42.667 -38 -68.667 -80.333 -78 -127c-10.667 -48 -0.666992 -85.333 30 -112c26.667 -24 65 -36 115 -36c64.667 0 119 21 163 63c40 38.667 67 91 81 157h20z" />
    <glyph glyph-name="Agrave" unicode="&#xc0;" horiz-adv-x="620" 
d="M527 773h-15l-108 145h29zM610 0h-22l-44 237h-364l-145 -237h-23l443 721h26zM540 258l-75 443h-2l-271 -443h348z" />
    <glyph glyph-name="Aacute" unicode="&#xc1;" horiz-adv-x="621" 
d="M611 918l-177 -145h-15l163 145h29zM608 0h-22l-44 237h-364l-145 -237h-23l443 721h26zM538 258l-75 443h-2l-271 -443h348z" />
    <glyph glyph-name="Acircumflex" unicode="&#xc2;" horiz-adv-x="625" 
d="M599 778h-20l-77 124l-125 -124h-20l143 140h15zM611 0h-22l-44 237h-364l-145 -237h-23l443 721h26zM541 258l-75 443h-2l-271 -443h348z" />
    <glyph glyph-name="Atilde" unicode="&#xc3;" horiz-adv-x="619" 
d="M625 865c-4.66699 -22 -14.6689 -40.167 -30.002 -54.5s-33.666 -21.5 -54.999 -21.5c-18 0 -37.833 9.83301 -59.5 29.5s-39.834 29.5 -54.501 29.5c-13.333 0 -26.166 -6.5 -38.499 -19.5s-19.833 -26.5 -22.5 -40.5h-20c4 18 14.667 35.833 32 53.5s35 26.5 53 26.5
c16 0 35.667 -9.83301 59 -29.5s41.666 -29.5 54.999 -29.5c14.667 0 27.834 5.66699 39.501 17s18.834 24.333 21.501 39h20zM607.998 0h-22l-44 237h-364l-145 -237h-23l443 721h26zM537.998 258l-75 443h-2l-271 -443h348z" />
    <glyph glyph-name="Adieresis" unicode="&#xc4;" horiz-adv-x="619" 
d="M562 776h-20l18 82h20zM406 776h-20l18 82h20zM608 0h-22l-44 237h-364l-145 -237h-23l443 721h26zM538 258l-75 443h-2l-271 -443h348z" />
    <glyph glyph-name="Aring" unicode="&#xc5;" horiz-adv-x="629" 
d="M580 833c-5.33301 -24 -18.498 -44.833 -39.498 -62.5s-43.5 -26.5 -67.5 -26.5s-42.833 8.83301 -56.5 26.5s-17.834 38.5 -12.501 62.5c4.66699 23.333 17.667 44 39 62s43.666 27 66.999 27s42 -9 56 -27s18.667 -38.667 14 -62zM613.002 0h-22l-44 237h-364
l-145 -237h-23l443 721h26zM560.002 833c4 18.667 0.667969 34.834 -9.99902 48.501s-25.334 20.5 -44.001 20.5s-36 -6.83301 -52 -20.5s-26 -29.834 -30 -48.501s-0.833008 -34.834 9.5 -48.501s24.833 -20.5 43.5 -20.5s36.167 6.83301 52.5 20.5
s26.5 29.834 30.5 48.501zM543.003 258l-75 443h-2l-271 -443h348z" />
    <glyph glyph-name="AE" unicode="&#xc6;" horiz-adv-x="868" 
d="M862 0h-412l58 277h-268l-203 -277h-22l531 721h469l-4 -20h-392l-67 -315h360l-5 -20h-360l-73 -346h392zM513 297l86 406h-47l-297 -406h258z" />
    <glyph glyph-name="Ccedilla" unicode="&#xc7;" horiz-adv-x="674" 
d="M717 283c-31.333 -88.667 -78.6709 -159.665 -142.004 -212.998c-66.667 -56.667 -143.334 -85.667 -230.001 -87l-38 -40c3.33301 0.666992 9.33301 2 18 4c6.66699 1.33301 12.334 2 17.001 2c50 0 70.667 -20 62 -60c-10.667 -49.333 -48.667 -74 -114 -74
c-18.667 0 -44.667 5.66699 -78 17l13 20c26.667 -11.333 49.667 -17 69 -17c52 0 82 18 90 54c2.66699 12 -1.16602 21.667 -11.499 29s-22.166 11 -35.499 11c-21.333 0 -40 -4.33301 -56 -13l-13 10l57 57c-95.333 4 -163.333 43.667 -204 119
c-38.667 69.333 -47.334 153.666 -26.001 252.999c22.667 107.333 70.334 196.666 143.001 267.999c78 76.667 169.333 115 274 115c70 0 128.667 -21 176 -63c51.333 -46 71.333 -102.667 60 -170h-20c8 63.333 -11 115.333 -57 156c-43.333 38 -97.666 57 -162.999 57
c-98 0 -183.667 -36.667 -257 -110c-69.333 -68 -114.666 -152.333 -135.999 -253c-20.667 -96 -11.667 -177 27 -243c41.333 -72.667 108.333 -109 201 -109c82.667 0 156 26.667 220 80c60 50 104.667 116.667 134 200h20z" />
    <glyph glyph-name="Egrave" unicode="&#xc8;" horiz-adv-x="508" 
d="M460 773h-15l-108 145h29zM508 0h-478l153 721h474l-4 -20h-454l-67 -315h427l-5 -20h-427l-73 -346h458z" />
    <glyph glyph-name="Eacute" unicode="&#xc9;" horiz-adv-x="506" 
d="M544 918l-177 -145h-15l163 145h29zM506 0h-478l153 721h474l-4 -20h-454l-67 -315h427l-5 -20h-427l-73 -346h458z" />
    <glyph glyph-name="Ecircumflex" unicode="&#xca;" horiz-adv-x="509" 
d="M532 778h-20l-77 124l-125 -124h-20l143 140h15zM509 0h-478l153 721h474l-4 -20h-454l-67 -315h427l-5 -20h-427l-73 -346h458z" />
    <glyph glyph-name="Edieresis" unicode="&#xcb;" horiz-adv-x="510" 
d="M499 776h-20l18 82h20zM343 776h-20l18 82h20zM510 0h-478l153 721h474l-4 -20h-454l-67 -315h427l-5 -20h-427l-73 -346h458z" />
    <glyph glyph-name="Igrave" unicode="&#xcc;" horiz-adv-x="164" 
d="M318 773h-15l-108 145h29zM113 0h-20l153 721h20z" />
    <glyph glyph-name="Iacute" unicode="&#xcd;" horiz-adv-x="170" 
d="M365 918l-177 -145h-15l163 145h29zM74 0h-20l153 721h20z" />
    <glyph glyph-name="Icircumflex" unicode="&#xce;" horiz-adv-x="252" 
d="M412 778h-20l-77 124l-125 -124h-20l143 140h15zM136 0h-20l153 721h20z" />
    <glyph glyph-name="Idieresis" unicode="&#xcf;" horiz-adv-x="184" 
d="M344 776h-20l18 82h20zM188 776h-20l18 82h20zM102 0h-20l153 721h20z" />
    <glyph glyph-name="Eth" unicode="&#xd0;" horiz-adv-x="674" 
d="M721 361c-22.667 -108.667 -69.333 -195.333 -140 -260c-74 -67.333 -164.333 -101 -271 -101h-219l77 366h-64l5 20h64l71 335h250c102.667 0 172.667 -35 210 -105c34 -63.333 39.667 -148.333 17 -255zM701.001 361.001c22 104 17.334 185 -13.999 243
c-34.667 64.667 -102 97 -202 97h-225l-67 -315h297l-5 -20h-297l-73 -346h204c99.333 0 183.666 32.667 252.999 98c64.667 61.333 107.667 142.333 129 243z" />
    <glyph glyph-name="Ntilde" unicode="&#xd1;" horiz-adv-x="602" 
d="M616 865c-4.66699 -22 -14.6689 -40.167 -30.002 -54.5s-33.666 -21.5 -54.999 -21.5c-18 0 -37.833 9.83301 -59.5 29.5s-39.834 29.5 -54.501 29.5c-13.333 0 -26.166 -6.5 -38.499 -19.5s-19.833 -26.5 -22.5 -40.5h-20c4 18 14.667 35.833 32 53.5s35 26.5 53 26.5
c16 0 35.667 -9.83301 59 -29.5s41.666 -29.5 54.999 -29.5c14.667 0 27.834 5.66699 39.501 17s18.834 24.333 21.501 39h20zM570.998 0h-30l-341 696h-2l-147 -696h-20l153 721h30l340 -696h2l148 696h20z" />
    <glyph glyph-name="Ograve" unicode="&#xd2;" horiz-adv-x="698" 
d="M565 773h-15l-108 145h29zM755 361c-22.667 -106 -69.001 -194 -139.001 -264c-76.667 -76 -166.667 -114 -270 -114s-177.333 38 -222 114c-40.667 70 -49.667 158 -27 264s69.334 194 140.001 264c76 75.333 165.667 113 269 113s177.333 -37.667 222 -113
c40.667 -70 49.667 -158 27 -264zM734.999 361c21.333 100.667 13.334 184 -23.999 250c-41.333 71.333 -111 107 -209 107s-182.667 -35.667 -254 -107c-66 -66 -109.667 -149.333 -131 -250s-13 -184 25 -250c40.667 -72 110 -108 208 -108s183 36 255 108
c65.333 66 108.666 149.333 129.999 250z" />
    <glyph glyph-name="Oacute" unicode="&#xd3;" horiz-adv-x="698" 
d="M649 918l-177 -145h-15l163 145h29zM753 361c-22.667 -106 -69 -194 -139 -264c-76.667 -76 -166.667 -114 -270 -114s-177.333 38 -222 114c-40.667 70 -49.667 158 -27 264s69 194 139 264c76.667 75.333 166.667 113 270 113s177.333 -37.667 222 -113
c40.667 -70 49.667 -158 27 -264zM733 361c21.333 100.667 13.333 184 -24 250c-41.333 71.333 -111 107 -209 107s-183 -35.667 -255 -107c-65.333 -66 -108.666 -149.333 -129.999 -250s-13.333 -184 24 -250c41.333 -72 111 -108 209 -108s183 36 255 108
c65.333 66 108.666 149.333 129.999 250z" />
    <glyph glyph-name="Ocircumflex" unicode="&#xd4;" horiz-adv-x="700" 
d="M636 778h-20l-77 124l-125 -124h-20l143 140h15zM755 361c-22.667 -106 -69 -194 -139 -264c-76.667 -76 -166.667 -114 -270 -114s-177.333 38 -222 114c-40.667 70 -49.667 158 -27 264s69 194 139 264c76.667 75.333 166.667 113 270 113s177.333 -37.667 222 -113
c40.667 -70 49.667 -158 27 -264zM735 361c21.333 100.667 13.333 184 -24 250c-41.333 71.333 -111 107 -209 107s-183 -35.667 -255 -107c-65.333 -66 -108.666 -149.333 -129.999 -250s-13.333 -184 24 -250c41.333 -72 111 -108 209 -108s183 36 255 108
c65.333 66 108.666 149.333 129.999 250z" />
    <glyph glyph-name="Otilde" unicode="&#xd5;" horiz-adv-x="704" 
d="M667 865c-4.66699 -22 -14.6719 -40.167 -30.0049 -54.5s-33.666 -21.5 -54.999 -21.5c-17.333 0 -37 9.83301 -59 29.5s-40.333 29.5 -55 29.5c-13.333 0 -26.166 -6.5 -38.499 -19.5s-19.833 -26.5 -22.5 -40.5h-20c4 18 14.667 35.833 32 53.5s35 26.5 53 26.5
c16 0 35.833 -9.83301 59.5 -29.5s41.834 -29.5 54.501 -29.5c14.667 0 27.834 5.66699 39.501 17s18.834 24.333 21.501 39h20zM756.995 361c-22.667 -106 -69 -194 -139 -264c-76.667 -76 -166.667 -114 -270 -114s-177.333 38 -222 114c-40.667 70 -49.667 158 -27 264
s69 194 139 264c76.667 75.333 166.667 113 270 113s177.333 -37.667 222 -113c40.667 -70 49.667 -158 27 -264zM736.995 361c21.333 100.667 13.333 184 -24 250c-41.333 71.333 -111 107 -209 107s-183 -35.667 -255 -107c-65.333 -66 -108.666 -149.333 -129.999 -250
s-13.333 -184 24 -250c41.333 -72 111 -108 209 -108s183 36 255 108c65.333 66 108.666 149.333 129.999 250z" />
    <glyph glyph-name="Odieresis" unicode="&#xd6;" horiz-adv-x="704" 
d="M604 776h-20l18 82h20zM448 776h-20l18 82h20zM757 361c-22.667 -106 -69.001 -194 -139.001 -264c-76.667 -76 -166.667 -114 -270 -114s-177.333 38 -222 114c-40.667 70 -49.667 158 -27 264s69.334 194 140.001 264c76 75.333 165.667 113 269 113
s177.333 -37.667 222 -113c40.667 -70 49.667 -158 27 -264zM736.999 361c21.333 100.667 13.334 184 -23.999 250c-41.333 71.333 -111 107 -209 107s-182.667 -35.667 -254 -107c-66 -66 -109.667 -149.333 -131 -250s-13 -184 25 -250c40.667 -72 110 -108 208 -108
s183 36 255 108c65.333 66 108.666 149.333 129.999 250z" />
    <glyph glyph-name="multiply" unicode="&#xd7;" horiz-adv-x="476" 
d="M455 64l-17 -15l-150 193l-230 -193l-11 15l231 192l-149 191l16 14l148 -193l232 193l12 -14l-232 -191z" />
    <glyph glyph-name="Oslash" unicode="&#xd8;" horiz-adv-x="719" 
d="M765 361c-22.667 -106 -69.333 -193.999 -140 -263.999c-76 -76 -165.667 -114 -269 -114c-98.667 0 -169.667 34 -213 102l-88 -80l-13 12l91 82c-39.333 69.333 -48 156.666 -26 261.999c22.667 106 69 194 139 264c76.667 75.333 166.667 113 270 113
c96.667 0 167.667 -33.333 213 -100l73 66l13 -12l-76 -69c40 -68 48.667 -155.333 26 -262zM712.001 623.001c-42.667 63.333 -109.334 95 -200.001 95c-98 0 -183 -35.667 -255 -107c-65.333 -66 -108.666 -149.333 -129.999 -250c-20.667 -99.333 -13 -181.333 23 -246z
M745.001 361.001c21.333 100 13.667 182 -23 246l-562 -507c40 -64.667 106.667 -97 200 -97c98 0 182.667 36 254 108c66 66 109.667 149.333 131 250z" />
    <glyph glyph-name="Ugrave" unicode="&#xd9;" horiz-adv-x="574" 
d="M503 773h-15l-108 145h29zM607 269c-19.333 -90 -55.333 -159.333 -108 -208c-55.333 -52 -127 -78 -215 -78s-149 26 -183 78c-31.333 48.667 -37.333 118 -18 208l96 452h20l-96 -452c-38 -177.333 23.667 -266 185 -266s261 88.667 299 266l96 452h20z" />
    <glyph glyph-name="Uacute" unicode="&#xda;" horiz-adv-x="575" 
d="M587 918l-177 -145h-15l163 145h29zM605 269c-19.333 -90 -55.333 -159.333 -108 -208c-55.333 -52 -127 -78 -215 -78s-149 26 -183 78c-31.333 48.667 -37.333 118 -18 208l96 452h20l-96 -452c-38 -177.333 23.667 -266 185 -266s261 88.667 299 266l96 452h20z" />
    <glyph glyph-name="Ucircumflex" unicode="&#xdb;" horiz-adv-x="578" 
d="M575 778h-20l-77 124l-125 -124h-20l143 140h15zM608 269c-19.333 -90 -55.333 -159.333 -108 -208c-55.333 -52 -127 -78 -215 -78s-149 26 -183 78c-31.333 48.667 -37.333 118 -18 208l96 452h20l-96 -452c-38 -177.333 23.667 -266 185 -266s261 88.667 299 266
l96 452h20z" />
    <glyph glyph-name="Udieresis" unicode="&#xdc;" horiz-adv-x="582" 
d="M543 776h-20l18 82h20zM387 776h-20l18 82h20zM610 269c-19.333 -90 -55.333 -159.333 -108 -208c-55.333 -52 -127 -78 -215 -78s-149 26 -183 78c-31.333 48.667 -37.333 118 -18 208l96 452h20l-96 -452c-38 -177.333 23.667 -266 185 -266s261 88.667 299 266l96 452
h20z" />
    <glyph glyph-name="Yacute" unicode="&#xdd;" horiz-adv-x="606" 
d="M608 940l-177 -145h-15l163 145h29zM755 721l-378 -417l-64 -304h-20l64 304l-200 417h25l190 -396l359 396h24z" />
    <glyph glyph-name="Thorn" unicode="&#xde;" horiz-adv-x="547" 
d="M630 399c-16.667 -78.667 -60.668 -134 -132.001 -166c-52.667 -23.333 -124.667 -35 -216 -35c-23.333 0 -55.333 0.833008 -96 2.5s-68.334 2.5 -83.001 2.5l-43 -203h-20l153 721h20l-27 -125c16.667 0 47.834 1.16699 93.501 3.5s80.834 3.5 105.501 3.5
c88 0 151.667 -12 191 -36c53.333 -32.667 71.333 -88.667 54 -168zM609.999 399c25.333 118 -27.666 177 -158.999 177h-269l-75 -353h269c56 0 106.167 15.5 150.5 46.5s72.166 74.167 83.499 129.5z" />
    <glyph glyph-name="germandbls" unicode="&#xdf;" horiz-adv-x="461" 
d="M480 212c-17.333 -79.333 -52.002 -135.666 -104.002 -168.999c-45.333 -28.667 -109 -43 -191 -43l4 20l26 -1c134.667 -5.33301 216.334 59 245.001 193c14.667 69.333 2.66699 118 -36 146c-30 22 -82 33 -156 33l4 20c128.667 0 204 52 226 156
c9.33301 44.667 0.333008 80.667 -27 108c-25.333 25.333 -60.666 38 -105.999 38c-49.333 0 -90.5 -13.167 -123.5 -39.5s-54.833 -64.5 -65.5 -114.5l-118 -559h-20l119 562c11.333 54 36 96 74 126s84 45 138 45c50 0 89.667 -14.667 119 -44
c30.667 -32 40.667 -72.667 30 -122c-9.33301 -42.667 -27.666 -78.334 -54.999 -107.001c-29.333 -30.667 -65 -49.334 -107 -56.001v-2c107.333 -9.33301 148.666 -72.666 123.999 -189.999z" />
    <glyph glyph-name="agrave" unicode="&#xe0;" 
d="M502 142c-10 -18.667 -28.001 -42.001 -54.001 -70.001c-54.667 -56 -118.334 -84 -191.001 -84c-72 0 -123.667 28 -155 84c-28 50.667 -34 113.334 -18 188.001c15.333 74 48.333 136.667 99 188c54.667 55.333 118 83 190 83c22.667 0 43.834 -1.5 63.501 -4.5
s38.334 -7.16699 56.001 -12.5s34.667 -11.5 51 -18.5l49.5 -20.5l-101 -475h-20zM526.999 259.999l43.001 198.001c-30.667 16 -61.167 29 -91.5 39s-66.833 14.667 -109.5 14c-66 0 -124 -26 -174 -78c-46 -46.667 -76.333 -104.334 -91 -173.001
c-14.667 -69.333 -9.33398 -127.333 15.999 -174c28 -52 75.333 -78 142 -78s125 26 175 78c45.333 47.333 75.333 105.333 90 174zM469 593h-15l-109 145h29z" />
    <glyph glyph-name="aacute" unicode="&#xe1;" 
d="M502 142c-10 -18.667 -28.001 -42.001 -54.001 -70.001c-54.667 -56 -118.334 -84 -191.001 -84c-72 0 -123.667 28 -155 84c-28 50.667 -34 113.334 -18 188.001c15.333 74 48.333 136.667 99 188c54.667 55.333 118 83 190 83c22.667 0 43.834 -1.5 63.501 -4.5
s38.334 -7.16699 56.001 -12.5s34.667 -11.5 51 -18.5l49.5 -20.5l-101 -475h-20zM526.999 259.999l43.001 198.001c-30.667 16 -61.167 29 -91.5 39s-66.833 14.667 -109.5 14c-66 0 -124 -26 -174 -78c-46 -46.667 -76.333 -104.334 -91 -173.001
c-14.667 -69.333 -9.33398 -127.333 15.999 -174c28 -52 75.333 -78 142 -78s125 26 175 78c45.333 47.333 75.333 105.333 90 174zM502 738l-176 -145h-15l162 145h29z" />
    <glyph glyph-name="acircumflex" unicode="&#xe2;" 
d="M502 142c-10 -18.667 -28.001 -42.001 -54.001 -70.001c-54.667 -56 -118.334 -84 -191.001 -84c-72 0 -123.667 28 -155 84c-28 50.667 -34 113.334 -18 188.001c15.333 74 48.333 136.667 99 188c54.667 55.333 118 83 190 83c22.667 0 43.834 -1.5 63.501 -4.5
s38.334 -7.16699 56.001 -12.5s34.667 -11.5 51 -18.5l49.5 -20.5l-101 -475h-20zM526.999 259.999l43.001 198.001c-30.667 16 -61.167 29 -91.5 39s-66.833 14.667 -109.5 14c-66 0 -124 -26 -174 -78c-46 -46.667 -76.333 -104.334 -91 -173.001
c-14.667 -69.333 -9.33398 -127.333 15.999 -174c28 -52 75.333 -78 142 -78s125 26 175 78c45.333 47.333 75.333 105.333 90 174zM514 598h-20l-77 124l-125 -124h-20l142 140h15z" />
    <glyph glyph-name="atilde" unicode="&#xe3;" 
d="M502 142c-10 -18.667 -28.001 -42.001 -54.001 -70.001c-54.667 -56 -118.334 -84 -191.001 -84c-72 0 -123.667 28 -155 84c-28 50.667 -34 113.334 -18 188.001c15.333 74 48.333 136.667 99 188c54.667 55.333 118 83 190 83c22.667 0 43.834 -1.5 63.501 -4.5
s38.334 -7.16699 56.001 -12.5s34.667 -11.5 51 -18.5l49.5 -20.5l-101 -475h-20zM526.999 259.999l43.001 198.001c-30.667 16 -61.167 29 -91.5 39s-66.833 14.667 -109.5 14c-66 0 -124 -26 -174 -78c-46 -46.667 -76.333 -104.334 -91 -173.001
c-14.667 -69.333 -9.33398 -127.333 15.999 -174c28 -52 75.333 -78 142 -78s125 26 175 78c45.333 47.333 75.333 105.333 90 174zM543 685c-4.66699 -22 -14.5 -40.167 -29.5 -54.5s-33.5 -21.5 -55.5 -21.5c-17.333 0 -37.166 9.83301 -59.499 29.5
s-40.833 29.5 -55.5 29.5c-12.667 0 -25 -6.5 -37 -19.5s-19.667 -26.5 -23 -40.5h-20c3.33301 18 14 35.833 32 53.5s35.667 26.5 53 26.5c16.667 0 36.667 -9.83301 60 -29.5s41.333 -29.5 54 -29.5c14.667 0 27.667 5.66699 39 17s18.666 24.333 21.999 39h20z" />
    <glyph glyph-name="adieresis" unicode="&#xe4;" 
d="M502 142c-10 -18.667 -28.001 -42.001 -54.001 -70.001c-54.667 -56 -118.334 -84 -191.001 -84c-72 0 -123.667 28 -155 84c-28 50.667 -34 113.334 -18 188.001c15.333 74 48.333 136.667 99 188c54.667 55.333 118 83 190 83c22.667 0 43.834 -1.5 63.501 -4.5
s38.334 -7.16699 56.001 -12.5s34.667 -11.5 51 -18.5l49.5 -20.5l-101 -475h-20zM526.999 259.999l43.001 198.001c-30.667 16 -61.167 29 -91.5 39s-66.833 14.667 -109.5 14c-66 0 -124 -26 -174 -78c-46 -46.667 -76.333 -104.334 -91 -173.001
c-14.667 -69.333 -9.33398 -127.333 15.999 -174c28 -52 75.333 -78 142 -78s125 26 175 78c45.333 47.333 75.333 105.333 90 174zM480 596h-20l18 82h20zM324 596h-20l18 82h20z" />
    <glyph glyph-name="aring" unicode="&#xe5;" 
d="M502 142c-10 -18.667 -28.001 -42.001 -54.001 -70.001c-54.667 -56 -118.334 -84 -191.001 -84c-72 0 -123.667 28 -155 84c-28 50.667 -34 113.334 -18 188.001c15.333 74 48.333 136.667 99 188c54.667 55.333 118 83 190 83c22.667 0 43.834 -1.5 63.501 -4.5
s38.334 -7.16699 56.001 -12.5s34.667 -11.5 51 -18.5l49.5 -20.5l-101 -475h-20zM526.999 259.999l43.001 198.001c-30.667 16 -61.167 29 -91.5 39s-66.833 14.667 -109.5 14c-66 0 -124 -26 -174 -78c-46 -46.667 -76.333 -104.334 -91 -173.001
c-14.667 -69.333 -9.33398 -127.333 15.999 -174c28 -52 75.333 -78 142 -78s125 26 175 78c45.333 47.333 75.333 105.333 90 174zM497 674c-5.33301 -24 -18.499 -44.667 -39.499 -62s-43.5 -26 -67.5 -26c-23.333 0 -42 8.83301 -56 26.5s-18.333 38.167 -13 61.5
c4.66699 23.333 17.667 43.833 39 61.5s43.666 26.5 66.999 26.5s42 -8.83301 56 -26.5s18.667 -38.167 14 -61.5zM477.001 674c4 18.667 0.667969 34.667 -9.99902 48s-25.334 20 -44.001 20c-18 0 -35.167 -6.66699 -51.5 -20s-26.5 -29.333 -30.5 -48
s-0.666992 -34.667 10 -48s25 -20 43 -20c18.667 0 36.167 6.66699 52.5 20s26.5 29.333 30.5 48z" />
    <glyph glyph-name="ae" unicode="&#xe6;" horiz-adv-x="971" 
d="M570 348l33.999 52.501c11.333 17 23 31.833 35 44.5c54.667 57.333 116.667 86 186 86c74.667 0 126.334 -28 155.001 -84c24.667 -49.333 28.667 -113 12 -191h-430c-14.667 -73.333 -11.667 -131.333 9 -174c24 -49.333 71 -74 141 -74
c54.667 0 103.167 15.167 145.5 45.5s73.166 72.5 92.499 126.5h20c-19.333 -58.667 -52.666 -105.334 -99.999 -140.001s-100.666 -52 -159.999 -52c-76.667 0 -129 27 -157 81c-13.333 27.333 -20.333 59.666 -21 96.999l-35 -166h-20l30 142c-10 -18.667 -28 -42 -54 -70
c-54.667 -56 -118.334 -84 -191.001 -84c-72 0 -123.667 28 -155 84c-28 50.667 -34 113.334 -18 188.001c15.333 74 48.333 136.667 99 188c54.667 55.333 118 83 190 83s123.667 -28 155 -84c12 -21.333 20 -44.333 24 -69l30 141h20zM975.999 276.001
c14 66 8.66602 120.667 -16.001 164c-27.333 47.333 -73 71 -137 71c-62 0 -117.333 -24.333 -166 -73c-43.333 -43.333 -73.666 -97.333 -90.999 -162h410zM531.998 260.001c14 68 8.66797 125.668 -15.999 173.001c-28.667 52 -76 78 -142 78s-124 -26 -174 -78
c-46 -46.667 -76.333 -104.334 -91 -173.001c-14.667 -69.333 -9.33398 -127.333 15.999 -174c28 -52 75.333 -78 142 -78s125 26 175 78c45.333 47.333 75.333 105.333 90 174z" />
    <glyph glyph-name="ccedilla" unicode="&#xe7;" horiz-adv-x="476" 
d="M494 177c-17.333 -56.667 -48.1709 -101.999 -92.5039 -135.999s-94.833 -51.667 -151.5 -53l-43 -45c3.33301 0.666992 9.33301 2 18 4c6.66699 1.33301 12.334 2 17.001 2c50 0 70.667 -20 62 -60c-10.667 -49.333 -48.667 -74 -114 -74
c-18.667 0 -44.667 5.66699 -78 17l13 20c26.667 -11.333 49.667 -17 69 -17c52 0 82 18 90 54c2.66699 12 -1.16602 21.667 -11.499 29s-22.166 11 -35.499 11c-21.333 0 -40 -4.33301 -56 -13l-13 10l61 62c-65.333 4 -112 31.667 -140 83c-26.667 48 -32.667 107 -18 177
c17.333 80.667 51 146.667 101 198c54.667 56.667 121 85 199 85c52 0 92.667 -15.333 122 -46s41.333 -71.667 36 -123h-20c2.66699 46 -8.66602 82.333 -33.999 109s-61.333 40 -108 40c-72 0 -133.333 -26.667 -184 -80c-45.333 -47.333 -76 -108.333 -92 -183
c-14 -66.667 -8 -122.334 18 -167.001c28 -48.667 74.333 -73 139 -73c51.333 0 98.333 15.5 141 46.5s71 71.833 85 122.5h20z" />
    <glyph glyph-name="egrave" unicode="&#xe8;" horiz-adv-x="486" 
d="M418 571h-15l-108 145h29zM525 256l-430 0.000976562c-14.667 -73.333 -11.667 -131.333 9 -174c24 -49.333 71 -74 141 -74c54.667 0 103.167 15.167 145.5 45.5s73.166 72.5 92.499 126.5h20c-19.333 -58.667 -52.833 -105.334 -100.5 -140.001
s-100.834 -52 -159.501 -52c-77.333 0 -129.666 27 -156.999 81c-24 47.333 -27.333 111 -10 191c15.333 72 47.333 133.667 96 185c54 57.333 116 86 186 86c74.667 0 126.334 -28 155.001 -84c24.667 -49.333 28.667 -113 12 -191zM509 276.001
c14 66 8.66699 120.667 -16 164c-27.333 47.333 -73 71 -137 71c-62 0 -117.333 -24.333 -166 -73c-44 -43.333 -74.333 -97.333 -91 -162h410z" />
    <glyph glyph-name="eacute" unicode="&#xe9;" horiz-adv-x="486" 
d="M500 716l-177 -145h-15l163 145h29zM521 256l-430 0.000976562c-14.667 -73.333 -11.667 -131.333 9 -174c24 -49.333 71 -74 141 -74c54.667 0 103.167 15.167 145.5 45.5s73.166 72.5 92.499 126.5h20c-19.333 -58.667 -52.833 -105.334 -100.5 -140.001
s-100.834 -52 -159.501 -52c-77.333 0 -129.666 27 -156.999 81c-24 47.333 -27.333 111 -10 191c15.333 72 47.333 133.667 96 185c54 57.333 116 86 186 86c74.667 0 126.334 -28 155.001 -84c24.667 -49.333 28.667 -113 12 -191zM505 276.001
c14 66 8.66699 120.667 -16 164c-27.333 47.333 -73 71 -137 71c-62 0 -117.333 -24.333 -166 -73c-44 -43.333 -74.333 -97.333 -91 -162h410z" />
    <glyph glyph-name="ecircumflex" unicode="&#xea;" horiz-adv-x="491" 
d="M490 576h-20l-77 124l-125 -124h-20l143 140h15zM526 256l-430 0.000976562c-14.667 -73.333 -11.667 -131.333 9 -174c24 -49.333 71 -74 141 -74c54.667 0 103.167 15.167 145.5 45.5s73.166 72.5 92.499 126.5h20c-19.333 -58.667 -52.833 -105.334 -100.5 -140.001
s-100.834 -52 -159.501 -52c-77.333 0 -129.666 27 -156.999 81c-24 47.333 -27.333 111 -10 191c15.333 72 47.333 133.667 96 185c54 57.333 116 86 186 86c74.667 0 126.334 -28 155.001 -84c24.667 -49.333 28.667 -113 12 -191zM510 276.001
c14 66 8.66699 120.667 -16 164c-27.333 47.333 -73 71 -137 71c-62 0 -117.333 -24.333 -166 -73c-44 -43.333 -74.333 -97.333 -91 -162h410z" />
    <glyph glyph-name="edieresis" unicode="&#xeb;" horiz-adv-x="493" 
d="M458 574h-20l17 82h20zM302 574h-20l17 82h20zM527 256l-430 0.000976562c-14.667 -73.333 -11.667 -131.333 9 -174c24 -49.333 71 -74 141 -74c54.667 0 103.167 15.167 145.5 45.5s73.166 72.5 92.499 126.5h20c-19.333 -58.667 -52.833 -105.334 -100.5 -140.001
s-100.834 -52 -159.501 -52c-77.333 0 -129.666 27 -156.999 81c-24 47.333 -27.333 111 -10 191c15.333 72 47.333 133.667 96 185c54 57.333 116 86 186 86c74.667 0 126.334 -28 155.001 -84c24.667 -49.333 28.667 -113 12 -191zM511 276.001
c14 66 8.66699 120.667 -16 164c-27.333 47.333 -73 71 -137 71c-62 0 -117.333 -24.333 -166 -73c-44 -43.333 -74.333 -97.333 -91 -162h410z" />
    <glyph glyph-name="igrave" unicode="&#xec;" horiz-adv-x="164" 
d="M276 571h-15l-108 145h29zM114 0h-20l110 519h20z" />
    <glyph glyph-name="iacute" unicode="&#xed;" horiz-adv-x="170" 
d="M321 716l-177 -145h-15l163 145h29zM73 0h-20l110 519h20z" />
    <glyph glyph-name="icircumflex" unicode="&#xee;" horiz-adv-x="253" 
d="M369 576h-20l-77 124l-125 -124h-20l143 140h15zM136 0h-20l110 519h20z" />
    <glyph glyph-name="idieresis" unicode="&#xef;" horiz-adv-x="192" 
d="M306 574h-20l17 82h20zM150 574h-20l17 82h20zM106 0h-20l110 519h20z" />
    <glyph glyph-name="eth" unicode="&#xf0;" horiz-adv-x="506" 
d="M536 250c-16 -72.667 -49.001 -133.668 -99.001 -183.001c-54.667 -52 -117.667 -78 -189 -78c-70.667 0 -122 26.333 -154 79c-30 48.667 -37 109.334 -21 182.001c15.333 72.667 48.333 133.667 99 183c54 52.667 116.667 79 188 79c72.667 0 121.667 -24.333 147 -73
h4c-21.333 73.333 -60.666 140.333 -117.999 201l-137 -68l-12 15l136 67c-22.667 22.667 -49.667 43 -81 61l19 14c32 -18.667 59.667 -40 83 -64l137 68l12 -16l-135 -68c110 -126.667 150.333 -259.667 121 -399zM515.999 249.999c14 66.667 7.66699 122.666 -19 167.999
c-28.667 49.333 -75.667 74 -141 74s-122.666 -24.333 -171.999 -73c-46.667 -45.333 -77 -101.666 -91 -168.999c-14.667 -67.333 -8.33398 -123.333 18.999 -168c28.667 -48.667 75.667 -73 141 -73s123 24.333 173 73c45.333 45.333 75.333 101.333 90 168z" />
    <glyph glyph-name="ntilde" unicode="&#xf1;" horiz-adv-x="452" 
d="M499 663c-4.66699 -22 -14.668 -40.167 -30.001 -54.5s-33.666 -21.5 -54.999 -21.5c-17.333 0 -37 9.83301 -59 29.5s-40.333 29.5 -55 29.5c-13.333 0 -26 -6.5 -38 -19.5s-19.667 -26.5 -23 -40.5h-20c4 18 14.667 35.833 32 53.5s35 26.5 53 26.5
c16 0 36 -9.83301 60 -29.5s42.333 -29.5 55 -29.5c14.667 0 27.667 5.66699 39 17s18.333 24.333 21 39h20zM421.999 0h-20.002l72 341c11.333 52 5.83301 93.333 -16.5 124s-59.166 46 -110.499 46c-58.667 0 -110 -22 -154 -66c-40 -40 -66.333 -90.333 -79 -151
l-62 -294h-20l110 519h20l-27 -128h2c19.333 43.333 48.5 77.5 87.5 102.5s81.167 37.5 126.5 37.5c56.667 0 97.834 -17 123.501 -51s32.5 -79.333 20.5 -136z" />
    <glyph glyph-name="ograve" unicode="&#xf2;" horiz-adv-x="500" 
d="M424 571h-15l-108 145h29zM538 260c-16 -74.667 -48.999 -137.334 -98.999 -188.001c-54.667 -56 -118.334 -84 -191.001 -84c-72 0 -123.667 28 -155 84c-28 50.667 -34 113.334 -18 188.001c15.333 74 48.333 136.667 99 188c54.667 55.333 118 83 190 83
s123.667 -28 155 -84c28 -50.667 34.333 -113 19 -187zM518.001 260c14 68 8.66797 125.668 -15.999 173.001c-28.667 52 -76 78 -142 78s-124 -26 -174 -78c-46 -46.667 -76.333 -104.334 -91 -173.001c-14.667 -69.333 -9.33398 -127.333 15.999 -174
c28 -52 75.333 -78 142 -78s125 26 175 78c45.333 47.333 75.333 105.333 90 174z" />
    <glyph glyph-name="oacute" unicode="&#xf3;" horiz-adv-x="500" 
d="M507 716l-177 -145h-15l163 145h29zM535 260c-16 -74.667 -48.999 -137.334 -98.999 -188.001c-54.667 -56 -118.334 -84 -191.001 -84c-72 0 -123.667 28 -155 84c-28 50.667 -34 113.334 -18 188.001c15.333 74 48.333 136.667 99 188c54.667 55.333 118 83 190 83
s123.667 -28 155 -84c28 -50.667 34.333 -113 19 -187zM515.001 260c14 68 8.66797 125.668 -15.999 173.001c-28.667 52 -76 78 -142 78s-124 -26 -174 -78c-46 -46.667 -76.333 -104.334 -91 -173.001c-14.667 -69.333 -9.33398 -127.333 15.999 -174
c28 -52 75.333 -78 142 -78s125 26 175 78c45.333 47.333 75.333 105.333 90 174z" />
    <glyph glyph-name="ocircumflex" unicode="&#xf4;" horiz-adv-x="505" 
d="M496 576h-20l-77 124l-125 -124h-20l143 140h15zM539 260c-16 -74.667 -48.999 -137.334 -98.999 -188.001c-54.667 -56 -118.334 -84 -191.001 -84c-72 0 -123.667 28 -155 84c-28 50.667 -34 113.334 -18 188.001c15.333 74 48.333 136.667 99 188
c54.667 55.333 118 83 190 83s123.667 -28 155 -84c28 -50.667 34.333 -113 19 -187zM519.001 260c14 68 8.66797 125.668 -15.999 173.001c-28.667 52 -76 78 -142 78s-124 -26 -174 -78c-46 -46.667 -76.333 -104.334 -91 -173.001
c-14.667 -69.333 -9.33398 -127.333 15.999 -174c28 -52 75.333 -78 142 -78s125 26 175 78c45.333 47.333 75.333 105.333 90 174z" />
    <glyph glyph-name="otilde" unicode="&#xf5;" horiz-adv-x="509" 
d="M527 663c-4.66699 -22 -14.668 -40.167 -30.001 -54.5s-33.666 -21.5 -54.999 -21.5c-17.333 0 -37 9.83301 -59 29.5s-40.333 29.5 -55 29.5c-13.333 0 -26 -6.5 -38 -19.5s-19.667 -26.5 -23 -40.5h-20c4 18 14.667 35.833 32 53.5s35 26.5 53 26.5
c16 0 36 -9.83301 60 -29.5s42.333 -29.5 55 -29.5c14.667 0 27.667 5.66699 39 17s18.333 24.333 21 39h20zM540.999 260c-16 -74.667 -48.999 -137.334 -98.999 -188.001c-54.667 -56 -118.334 -84 -191.001 -84c-72 0 -123.667 28 -155 84
c-28 50.667 -34 113.334 -18 188.001c15.333 74 48.333 136.667 99 188c54.667 55.333 118 83 190 83s123.667 -28 155 -84c28 -50.667 34.333 -113 19 -187zM521 260c14 68 8.66797 125.668 -15.999 173.001c-28.667 52 -76 78 -142 78s-124 -26 -174 -78
c-46 -46.667 -76.333 -104.334 -91 -173.001c-14.667 -69.333 -9.33398 -127.333 15.999 -174c28 -52 75.333 -78 142 -78s125 26 175 78c45.333 47.333 75.333 105.333 90 174z" />
    <glyph glyph-name="odieresis" unicode="&#xf6;" horiz-adv-x="507" 
d="M464 574h-20l17 82h20zM308 574h-20l17 82h20zM540 260c-16 -74.667 -48.999 -137.334 -98.999 -188.001c-54.667 -56 -118.334 -84 -191.001 -84c-72 0 -123.667 28 -155 84c-28 50.667 -34 113.334 -18 188.001c15.333 74 48.333 136.667 99 188
c54.667 55.333 118 83 190 83s123.667 -28 155 -84c28 -50.667 34.333 -113 19 -187zM520.001 260c14 68 8.66797 125.668 -15.999 173.001c-28.667 52 -76 78 -142 78s-124 -26 -174 -78c-46 -46.667 -76.333 -104.334 -91 -173.001
c-14.667 -69.333 -9.33398 -127.333 15.999 -174c28 -52 75.333 -78 142 -78s125 26 175 78c45.333 47.333 75.333 105.333 90 174z" />
    <glyph glyph-name="divide" unicode="&#xf7;" horiz-adv-x="510" 
d="M395 470c-6 -28 -22.665 -42 -49.998 -42s-38 14 -32 42c2.66699 12 8.66699 21.833 18 29.5s20 11.5 32 11.5c11.333 0 20.166 -4 26.499 -12s8.16602 -17.667 5.49902 -29zM559.002 245h-504l4 21h504zM304.002 41c-5.33301 -27.333 -21.665 -41 -48.998 -41
s-38.333 13.667 -33 41c6 28 22.667 42 50 42c11.333 0 20.166 -4 26.499 -12s8.16602 -18 5.49902 -30z" />
    <glyph glyph-name="oslash" unicode="&#xf8;" horiz-adv-x="533" 
d="M557 260c-16 -74.667 -49 -137.332 -99 -187.999c-54.667 -56 -118.334 -84 -191.001 -84c-71.333 0 -122.333 26.667 -153 80l-70 -60l-11 14l74 63c-23.333 47.333 -27.666 105.666 -12.999 174.999c15.333 74 48.333 136.667 99 188c54.667 55.333 118 83 190 83
c70 0 120.333 -26 151 -78l55 48l11 -14l-58 -50c24.667 -48 29.667 -107 15 -177zM516 438.002c-26.667 48.667 -72.333 73.001 -137 73.001c-66.667 0 -125 -26 -175 -78c-45.333 -46.667 -75.333 -104.334 -90 -173.001c-13.333 -62 -10 -115.333 10 -160z
M537.001 260.003c13.333 62.667 9 116.667 -13 162l-392 -338c26 -50.667 72.667 -76 140 -76c66 0 124.333 26 175 78c45.333 47.333 75.333 105.333 90 174z" />
    <glyph glyph-name="ugrave" unicode="&#xf9;" horiz-adv-x="440" 
d="M393 571h-15l-108 145h29zM416 0h-20l27 128h-2c-20 -43.333 -49.5 -77.5 -88.5 -102.5s-81.167 -37.5 -126.5 -37.5c-56.667 0 -97.667 17 -123 51s-32 79.333 -20 136l73 344h20l-73 -341c-10.667 -52 -5 -93.333 17 -124s58.667 -46 110 -46c58.667 0 110 22 154 66
c40 40 66.333 90.333 79 151l63 294h20z" />
    <glyph glyph-name="uacute" unicode="&#xfa;" horiz-adv-x="441" 
d="M475 716l-177 -145h-15l163 145h29zM412 0h-20l27 128h-2c-20 -43.333 -49.5 -77.5 -88.5 -102.5s-81.167 -37.5 -126.5 -37.5c-56.667 0 -97.667 17 -123 51s-32 79.333 -20 136l73 344h20l-73 -341c-10.667 -52 -5 -93.333 17 -124s58.667 -46 110 -46
c58.667 0 110 22 154 66c40 40 66.333 90.333 79 151l63 294h20z" />
    <glyph glyph-name="ucircumflex" unicode="&#xfb;" horiz-adv-x="447" 
d="M465 576h-20l-77 124l-125 -124h-20l143 140h15zM417 0h-20l27 128h-2c-20 -43.333 -49.5 -77.5 -88.5 -102.5s-81.167 -37.5 -126.5 -37.5c-56.667 0 -97.667 17 -123 51s-32 79.333 -20 136l73 344h20l-73 -341c-10.667 -52 -5 -93.333 17 -124s58.667 -46 110 -46
c58.667 0 110 22 154 66c40 40 66.333 90.333 79 151l63 294h20z" />
    <glyph glyph-name="udieresis" unicode="&#xfc;" horiz-adv-x="451" 
d="M434 574h-20l17 82h20zM278 574h-20l17 82h20zM419 0h-20l27 128h-2c-20 -43.333 -49.5 -77.5 -88.5 -102.5s-81.167 -37.5 -126.5 -37.5c-56.667 0 -97.667 17 -123 51s-32 79.333 -20 136l73 344h20l-73 -341c-10.667 -52 -5 -93.333 17 -124s58.667 -46 110 -46
c58.667 0 110 22 154 66c40 40 66.333 90.333 79 151l63 294h20z" />
    <glyph glyph-name="yacute" unicode="&#xfd;" horiz-adv-x="444" 
d="M485 738l-176 -145h-15l162 145h29zM548 519l-370 -625c-18.667 -31.333 -41 -52 -67 -62c-18.667 -7.33301 -47 -11 -85 -11l5 20c38.667 0 68.667 6 90 18c17.333 10 34 28.333 50 55l52 91l-106 514h22l99 -492l289 492h21z" />
    <glyph glyph-name="thorn" unicode="&#xfe;" horiz-adv-x="489" 
d="M542 261c-16 -76.667 -46.001 -139.667 -90.001 -189c-51.333 -56 -113.666 -84 -186.999 -84c-50 0 -90.667 14.167 -122 42.5s-48.333 66.5 -51 114.5h-2l-69 -324h-20l192 900h20l-74 -347h2c24.667 49.333 57.834 87.833 99.501 115.5s88.167 41.5 139.5 41.5
c73.333 0 123.666 -27.667 150.999 -83c23.333 -48.667 27 -111 11 -187zM521.999 261c15.333 70.667 12.667 128.333 -8 173c-24.667 51.333 -70.667 77 -138 77s-125 -25.667 -173 -77c-44 -45.333 -73.333 -103 -88 -173c-15.333 -70.667 -11 -129 13 -175
c26 -52 73 -78 141 -78s125.333 26.333 172 79c38.667 44.667 65.667 102.667 81 174z" />
    <glyph glyph-name="ydieresis" unicode="&#xff;" horiz-adv-x="445" 
d="M438 596h-20l18 82h20zM282 596h-20l18 82h20zM549 519l-369.998 -625c-18 -31.333 -40 -52 -66 -62c-19.333 -7.33301 -48 -11 -86 -11l5 20c39.333 0 69.666 6 90.999 18c17.333 10 33.666 28.333 48.999 55l52 91l-106 514h22l99 -492l289 492h21z" />
    <glyph glyph-name="dotlessi" unicode="&#x131;" horiz-adv-x="116" 
d="M60 0h-20l109 514h20z" />
    <glyph glyph-name="Lslash" unicode="&#x141;" horiz-adv-x="534" 
d="M534 0h-437l57 269l-85 -52l5 24l85 52l89 421h20l-86 -407l285 174l-5 -24l-285 -174l-56 -263h417z" />
    <glyph glyph-name="lslash" unicode="&#x142;" horiz-adv-x="172" 
d="M265 455l-86 -63l-83 -392h-20l79 375l-86 -63l5 25l87 63l66 314h20l-63 -297l87 63z" />
    <glyph glyph-name="OE" unicode="&#x152;" horiz-adv-x="998" 
d="M992 0h-434.002l14 66c-64.667 -55.333 -136 -83 -214 -83c-103.333 0 -177.333 37.333 -222 112c-41.333 69.333 -51 156.666 -29 261.999c22.667 106.667 69.334 195.334 140.001 266.001c76 76.667 166.333 115 271 115c82.667 0 142.334 -27.667 179.001 -83l14 66
h434l-4 -20h-414l-67 -315h366l-5 -20h-366l-73 -346h414zM577.998 95l112.998 534c-43.333 59.333 -102.333 89 -177 89c-99.333 0 -184.666 -36.333 -255.999 -109c-65.333 -66 -109 -150 -131 -252c-21.333 -100 -12.666 -182.667 26.001 -248
c41.333 -70.667 111 -106 209 -106c78 0 150 30.667 216 92z" />
    <glyph glyph-name="oe" unicode="&#x153;" horiz-adv-x="891" 
d="M912 256l-401.996 -0.00195312c-35.333 -165.333 11 -248 139 -248c102 0 175 55.667 219 167h20c-22 -57.333 -53 -102.333 -93 -135c-43.333 -34.667 -93.333 -52 -150 -52c-56 0 -98.333 14.833 -127 44.5s-41.334 71.834 -38.001 126.501h-2
c-48 -114 -126.667 -171 -236 -171c-70.667 0 -119 28.667 -145 86c-21.333 49.333 -24 111.333 -8 186c16 75.333 45 137.333 87 186c49.333 56.667 109.666 85 180.999 85c53.333 0 94.666 -16.167 123.999 -48.5s42 -75.166 38 -128.499h2c22 56 53.333 99.5 94 130.5
s89 46.5 145 46.5c74.667 0 124 -28.667 148 -86c19.333 -47.333 20.666 -110.333 3.99902 -189zM896.004 275.998c13.333 68 10.333 122.333 -9 163c-22.667 48 -66 72 -130 72c-123.333 0 -204.333 -78.333 -243 -235h382zM491.004 259.998
c15.333 71.333 13.666 128.667 -5.00098 172c-22 52.667 -66.333 79 -133 79c-65.333 0 -120.666 -26.667 -165.999 -80c-37.333 -44.667 -63.333 -101.667 -78 -171s-13 -126.333 5 -171c22.667 -54 66.667 -81 132 -81c68.667 0 124.667 26 168 78
c36 43.333 61.667 101.333 77 174z" />
    <glyph glyph-name="Scaron" unicode="&#x160;" horiz-adv-x="568" 
d="M610 940l-142 -140h-15l-85 140h20l77 -124l125 124h20zM586 177c-13.333 -64 -50.6699 -113.335 -112.003 -148.002c-53.333 -30.667 -113.666 -46 -180.999 -46c-86 0 -149 20.667 -189 62c-42 44 -54 108.667 -36 194h20c-33.333 -157.333 36.334 -236 209.001 -236
c62 0 117.333 13.333 166 40c56.667 32 91 77 103 135c16 74 -15.333 125.667 -94 155l-223 59c-78.667 30 -109.667 83.333 -93 160c13.333 64.667 49.333 113.334 108 146.001c48.667 26.667 107 40 175 40c162 0 230.667 -73 206 -219h-20
c24 132.667 -39.333 199 -190 199c-61.333 0 -114.666 -12 -159.999 -36c-54 -28.667 -87 -72 -99 -130c-14.667 -69.333 17.333 -117.666 96 -144.999l223 -60c78 -32 108.333 -88.667 91 -170z" />
    <glyph glyph-name="scaron" unicode="&#x161;" horiz-adv-x="436" 
d="M499 738l-142 -140h-15l-85 140h20l77 -124l125 124h20zM442 132c-10.667 -47.333 -38.332 -84 -82.999 -110c-38.667 -22.667 -83.334 -34 -134.001 -34c-138.667 0 -194.667 63.333 -168 190h20c-24 -113.333 26.667 -170 152 -170c43.333 0 82.333 9.33301 117 28
c41.333 22 66.333 53.333 75 94c10.667 50.667 -12.333 86.334 -69 107.001l-161 44c-56 23.333 -78 63.333 -66 120c9.33301 43.333 35.333 76.666 78 99.999c36 20 77 30 123 30c124 0 174.333 -55 151 -165h-20c20.667 96.667 -24.333 145 -135 145
c-40 0 -75.667 -8 -107 -24c-38.667 -20 -62 -48.667 -70 -86c-10.667 -49.333 12.333 -84.333 69 -105l161 -45c56 -23.333 78.333 -63 67 -119z" />
    <glyph glyph-name="Ydieresis" unicode="&#x178;" horiz-adv-x="608" 
d="M556 776h-20l18 82h20zM400 776h-20l18 82h20zM756 721l-378 -417l-64 -304h-20l64 304l-200 417h25l190 -396l359 396h24z" />
    <glyph glyph-name="Zcaron" unicode="&#x17d;" horiz-adv-x="542" 
d="M600 931l-142 -139h-15l-85 139h20l77 -123l125 123h20zM540 0h-527l5 27l641 667h-471l4 20h491l-5 -27l-641 -667h507z" />
    <glyph glyph-name="zcaron" unicode="&#x17e;" horiz-adv-x="419" 
d="M493 731l-143 -139h-15l-84 139h20l77 -123l125 123h20zM415 0h-397l5 25l460 469h-333l4 20h354l-6 -25l-459 -469h376z" />
    <glyph glyph-name="florin" unicode="&#x192;" horiz-adv-x="479" 
d="M633 731l-8 -19.001c-20 4 -37.333 6 -52 6c-41.333 0 -76.666 -17.333 -105.999 -52c-21.333 -25.333 -41.333 -63.666 -60 -114.999l-41 -116h127l-8 -20h-127l-192 -471c-34 -82 -85 -123 -153 -123c-19.333 0 -35 2 -47 6l9 20c13.333 -4 26.666 -6 39.999 -6
c58 0 101.333 35.667 130 107l191 467h-119l8 20h119l47 130c20.667 54 43 94 67 120c32.667 35.333 73 53 121 53c20.667 0 38.667 -2.33301 54 -7z" />
    <glyph glyph-name="circumflex" unicode="&#x2c6;" horiz-adv-x="274" 
d="M385 598h-20l-77 124l-125 -124h-20l142 140h15z" />
    <glyph glyph-name="caron" unicode="&#x2c7;" horiz-adv-x="270" 
d="M411 731l-143 -139h-15l-84 139h20l77 -123l125 123h20z" />
    <glyph glyph-name="breve" unicode="&#x2d8;" horiz-adv-x="298" 
d="M427 731c-11.333 -33.333 -30.501 -59.5 -57.501 -78.5s-57.5 -28.5 -91.5 -28.5c-32 0 -56.833 9.83301 -74.5 29.5s-25.167 45.5 -22.5 77.5h20c-2 -26 4.5 -47 19.5 -63s35.5 -24 61.5 -24c64.667 0 106.334 29 125.001 87h20z" />
    <glyph glyph-name="dotaccent" unicode="&#x2d9;" horiz-adv-x="116" 
d="M185 590h-20l17 81h20z" />
    <glyph glyph-name="ring" unicode="&#x2da;" horiz-adv-x="230" 
d="M346 674c-5.33301 -24 -18.499 -44.667 -39.499 -62s-43.5 -26 -67.5 -26c-23.333 0 -42 8.83301 -56 26.5s-18.333 38.167 -13 61.5c4.66699 23.333 17.667 43.833 39 61.5s43.666 26.5 66.999 26.5s42 -8.83301 56 -26.5s18.667 -38.167 14 -61.5zM326.001 674
c4 18.667 0.667969 34.667 -9.99902 48s-25.334 20 -44.001 20c-18 0 -35.167 -6.66699 -51.5 -20s-26.5 -29.333 -30.5 -48s-0.666992 -34.667 10 -48s25 -20 43 -20c18.667 0 36.167 6.66699 52.5 20s26.5 29.333 30.5 48z" />
    <glyph glyph-name="ogonek" unicode="&#x2db;" horiz-adv-x="204" 
d="M159 -150c-30 -26 -64.335 -39 -103.002 -39c-20 0 -36.333 5.5 -49 16.5s-16.667 26.167 -12 45.5c6.66699 36 48 78.333 124 127h29c-82.667 -54 -127 -96 -133 -126c-3.33301 -14 -0.166016 -24.667 9.50098 -32s21.834 -11 36.501 -11c33.333 0 61 10.333 83 31z" />
    <glyph glyph-name="tilde" unicode="&#x2dc;" horiz-adv-x="331" 
d="M442 685c-4.66699 -22 -14.5 -40.167 -29.5 -54.5s-33.5 -21.5 -55.5 -21.5c-17.333 0 -37.166 9.83301 -59.499 29.5s-40.833 29.5 -55.5 29.5c-12.667 0 -25 -6.5 -37 -19.5s-19.667 -26.5 -23 -40.5h-20c3.33301 18 14 35.833 32 53.5s35.667 26.5 53 26.5
c16.667 0 36.667 -9.83301 60 -29.5s41.333 -29.5 54 -29.5c14.667 0 27.667 5.66699 39 17s18.666 24.333 21.999 39h20z" />
    <glyph glyph-name="hungarumlaut" unicode="&#x2dd;" horiz-adv-x="342" 
d="M483 731l-177 -144h-15l163 144h29zM333 731l-177 -144h-15l163 144h29z" />
    <glyph glyph-name="endash" unicode="&#x2013;" horiz-adv-x="581" 
d="M595 261h-500l4 20h500z" />
    <glyph glyph-name="emdash" unicode="&#x2014;" horiz-adv-x="1080" 
d="M1095 261h-1000l4 20h1000z" />
    <glyph glyph-name="quoteleft" unicode="&#x2018;" horiz-adv-x="86" 
d="M225 701c-19.333 -10.667 -34 -39.999 -44 -87.999l-25 -119h-20l25 119c6 30 12 50.667 18 62c10 19.333 26.667 34.666 50 45.999z" />
    <glyph glyph-name="quoteright" unicode="&#x2019;" horiz-adv-x="88" 
d="M182 602c-6 -30 -12.333 -50.668 -19 -62.001c-9.33301 -19.333 -25.333 -34.666 -48 -45.999l4 20c18.667 10.667 33 40 43 88l26 119h20z" />
    <glyph glyph-name="quotesinglbase" unicode="&#x201a;" horiz-adv-x="82" 
d="M55 0c-13.333 -60 -36.666 -100 -69.999 -120l4 20c21.333 16.667 38.666 57.667 51.999 123c2.66699 12 5.5 26.667 8.5 44s5.16699 28 6.5 32h20z" />
    <glyph glyph-name="quotedblleft" unicode="&#x201c;" horiz-adv-x="209" 
d="M331 701c-19.333 -10.667 -34 -39.999 -44 -87.999l-25 -119h-20l25 119c6 30 12 50.667 18 62c10 19.333 26.667 34.666 50 45.999zM231 701.001c-19.333 -10.667 -34 -39.999 -44 -87.999l-25 -119h-20l25 119c6 30 12 50.667 18 62c10 19.333 26.667 34.666 50 45.999
z" />
    <glyph glyph-name="quotedblright" unicode="&#x201d;" horiz-adv-x="211" 
d="M300 602c-6 -30 -12 -50.668 -18 -62.001c-10 -19.333 -26.333 -34.666 -49 -45.999l4 20c18.667 10.667 33 40 43 88l26 119h20zM200 601.999c-6 -30 -12 -50.668 -18 -62.001c-10 -19.333 -26.333 -34.666 -49 -45.999l4 20c18.667 10.667 33 40 43 88l26 119h20z" />
    <glyph glyph-name="quotedblbase" unicode="&#x201e;" horiz-adv-x="209" 
d="M173 0c-13.333 -60 -37 -100 -71 -120l4 20c22 16.667 39.667 57.667 53 123c2.66699 12 5.5 26.667 8.5 44s5.16699 28 6.5 32h20zM73 0c-13.333 -60 -37 -100 -71 -120l4 20c22 16.667 39.667 57.667 53 123c2.66699 12 5.5 26.667 8.5 44s5.16699 28 6.5 32h20z" />
    <glyph glyph-name="dagger" unicode="&#x2020;" horiz-adv-x="438" 
d="M533 456h-208l-126 -597h-20l126 597h-208l5 20h208l52 245h20l-52 -245h208z" />
    <glyph glyph-name="daggerdbl" unicode="&#x2021;" horiz-adv-x="438" 
d="M449 58h-208l-42 -199h-20l42 199h-208l4 20h208l90 424h-208l4 20h208l43 199h20l-43 -199h208l-4 -20h-208l-90 -424h208z" />
    <glyph glyph-name="bullet" unicode="&#x2022;" horiz-adv-x="413" 
d="M461 361c-10 -49.333 -36.334 -91.833 -79.001 -127.5s-88.667 -53.5 -138 -53.5c-50 0 -88.333 17.833 -115 53.5s-35 78.167 -25 127.5c10.667 49.333 36.834 91.5 78.501 126.5s87.5 52.5 137.5 52.5c49.333 0 87.833 -17.5 115.5 -52.5s36.167 -77.167 25.5 -126.5z
" />
    <glyph glyph-name="ellipsis" unicode="&#x2026;" horiz-adv-x="766" 
d="M726 0h-20l21 99h20zM393 0h-20l21 99h20zM60 0h-20l21 99h20z" />
    <glyph glyph-name="perthousand" unicode="&#x2030;" horiz-adv-x="1039" 
d="M1059 160c-10.667 -48.667 -32.998 -88.999 -66.998 -120.999c-36 -34 -77.667 -51 -125 -51c-48.667 0 -83 16.667 -103 50c-18.667 31.333 -23 71.666 -13 120.999c10.667 50 31.667 91 63 123c34.667 34 76.667 51 126 51s84.666 -16.667 105.999 -50
c19.333 -31.333 23.666 -72.333 12.999 -123zM448.002 525.001c-10 -48.667 -32.498 -89.333 -67.498 -122s-76.167 -49 -123.5 -49c-48.667 0 -83.334 16.667 -104.001 50c-18.667 30.667 -22.667 70.667 -12 120c10.667 50 31.667 91 63 123
c34.667 34.667 76.667 52 126 52s84.333 -17 105 -51c19.333 -31.333 23.666 -72.333 12.999 -123zM750.004 721.002l-637 -755h-23l637 755h23zM699.004 160.002c-10.667 -48.667 -32.998 -88.999 -66.998 -120.999c-36 -34 -77.667 -51 -125 -51
c-48.667 0 -83 16.667 -103 50c-18.667 31.333 -23 71.666 -13 120.999c10.667 50 31.667 91 63 123c34.667 34 76.667 51 126 51s84.666 -16.667 105.999 -50c19.333 -31.333 23.666 -72.333 12.999 -123zM1038.01 159.003c10 46 6.66797 83.166 -9.99902 111.499
s-47.334 42.5 -92.001 42.5s-81.667 -15 -111 -45c-26 -26.667 -44 -63 -54 -109c-9.33301 -43.333 -6 -78.666 10 -105.999c17.333 -30 47.333 -45 90 -45c42 0 78.667 15 110 45c29.333 28 48.333 63.333 57 106zM428.007 524.002c10 46.667 7 83.3311 -9 109.998
c-17.333 30 -48.333 45 -93 45s-82 -15 -112 -45c-25.333 -27.333 -43 -64 -53 -110c-9.33301 -43.333 -6 -78.666 10 -105.999c17.333 -29.333 47.333 -44 90 -44c42 0 78 14.333 108 43s49.667 64.334 59 107.001zM678.007 158.999c10 46 6.66797 83.166 -9.99902 111.499
s-47.334 42.5 -92.001 42.5s-81.667 -15 -111 -45c-26 -26.667 -44 -63 -54 -109c-9.33301 -43.333 -6 -78.666 10 -105.999c17.333 -30 47.333 -45 90 -45c42 0 78.667 15 110 45c29.333 28 48.333 63.333 57 106z" />
    <glyph glyph-name="guilsinglleft" unicode="&#x2039;" horiz-adv-x="145" 
d="M129 122l-73 141l4 16l133 140l-8 -35l-107 -113l59 -113z" />
    <glyph glyph-name="guilsinglright" unicode="&#x203a;" horiz-adv-x="144" 
d="M198 263l-133 -141l8 36l107 113l-59 113l8 35l73 -140z" />
    <glyph glyph-name="fraction" unicode="&#x2044;" horiz-adv-x="501" 
d="M651 714l-635 -748h-22l634 748h23z" />
    <glyph glyph-name="trademark" unicode="&#x2122;" horiz-adv-x="867" 
d="M891 305h-20l85 396h-2l-249 -396h-20l-79 396h-2l-85 -396h-20l89 416h34l79 -388l245 388h34zM490 701h-150l-85 -396h-20l85 396h-150l4 20h320z" />
    <glyph glyph-name="fi" unicode="&#xf001;" horiz-adv-x="327" 
d="M375 494h-153.998l-105 -494h-20l105 494h-88l4 20h88l8.5 48.5c3.66699 21 6.5 35.833 8.5 44.5c7.33301 36 18.666 61.667 33.999 77c19.333 20 50 30 92 30c1.33301 0 15.333 -1.33301 42 -4l-4 -20c-16.667 2.66699 -32 4 -46 4
c-28.667 0 -49.834 -5.16699 -63.501 -15.5s-23.5 -29.5 -29.5 -57.5l-22 -107h111h60l-109 -514h-20z" />
    <glyph glyph-name="NULL" horiz-adv-x="0" 
 />
    <glyph glyph-name="nonmarkingreturn" horiz-adv-x="205" 
 />
    <glyph glyph-name="glyph224" horiz-adv-x="205" 
 />
    </font>
</defs>
</svg>
